Прокляття нефритового скорпіона / The Curse of the Jade Scorpion (2001) Ukr/Eng | Sub Eng

Нові коментарі

Нова тема   Відповісти
Автор Повідомлення
Цікава ідея 
VIP


З нами з: 26.12.11
Востаннє: 14.07.20
Повідомлень: 520

2020-03-29 19:27  
AVC | 1080p

Прокляття нефритового скорпіона / The Curse of the Jade Scorpion (2001) Ukr/Eng | Sub Eng


Прокляття нефритового скорпіона / The Curse of the Jade Scorpion (2001) Ukr/Eng | Sub Eng


Жанр: комедія, кримінальний, детектив
Країна: США, Німеччина



Кінокомпанія: DreamWorks SKG, Perido Productions
Режисери: Вуді Аллен
Актори: Вуді Аллен, Хелен Хант, Ден Ейкройд, Девід Огден Стірс, Елізабет Берклі, Шарліз Терон, Джон Тормі, Джон Шак, Кайлі Вернофф, Брайан Маркінсон та інші.

Сюжет:
Страховий агент Бріггс терпіти не може свою начальницю. Ділова і напориста, вона намагається змінити всю систему пошуку шахраїв, якій він віддав все життя. Одного разу на вечірці в клубі «Нефритовий скорпіон», вони, ставши учасниками гіпнотичного експерименту, закохуються одне в одного.

Лише почувши потрібний пароль вони починають відчувати одне до одного неабияку пристрасть. Але безневинний на перший погляд жарт обертається добре підготовленою аферою, коли з'ясовується, що нечистий на руку гіпнотизер використовує свою владу, щоб без всіляких зусиль обкрадати заможних клієнтів. І ось починається справжній кошмар...


Перекладено та озвучено ТО "Цікава Ідея" на замовлення NemoInFire


Тривалість: 01:41:44
Якість:

Відео:
кодек:
розмір кадру: 704x400
бітрейт: 1802 кб/с
контейнер:

Аудіо # 1:
мова: українська | "Цікава Ідея"
переклад: професійний багатоголосий закадровий
кодек: 2.0
бітрейт: 192 кб/с

Аудіо # 2:
мова: англійська
переклад: оригінал
кодек: 2.0
бітрейт: 192 кб/с

Субтитри:
мова: англійська
тип: програмні (м'які)
формат: *.srt
Info
Код:
Format                      :
Format version              : Version 4
File size                   : 1.58 GiB
Duration                    : 1 h 41 min
Overall bit rate            : 2 230 kb/s
Movie name                  : Прокляття нефритового скорпіона / The Curse of the Jade Scorpion (2001) AVC [Ukr,Eng sub.Eng] [Цікава Ідея]
Encoded date                : UTC 2020-03-29 16:02:05
Writing application         : v6.8.0 ('Theme for Great Cities') 32bit built on Mar  2 2014 21:27:07
Writing library             : libebml v1.3.0 + v1.4.1
Cover                       : Yes
Attachments                 : cover.png

Video
ID                          : 1
Format                      : MPEG-4 Visual
Format profile              : Advanced [email protected]
Format settings             : BVOP1 / Custom Matrix
Format settings, BVOP       : 1
Format settings, QPel       : No
Format settings, GMC        : No warppoints
Format settings, Matrix     : Custom
Codec ID                    : V_MS/VFW/FOURCC /
Codec ID/Hint               :
Duration                    : 1 h 41 min
Bit rate                    : 1 802 kb/s
Width                       : 704 pixels
Height                      : 400 pixels
Display aspect ratio        : 16:9
Frame rate mode             : Constant
Frame rate                  : 24.000 FPS
Color space                 : YUV
Chroma subsampling          : 4:2:0
Bit depth                   : 8 bits
Scan type                   : Progressive
Compression mode            : Lossy
Bits/(Pixel*Frame)          : 0.267
Stream size                 : 1.28 GiB (81%)
Writing library             : 65
Default                     : Yes
Forced                      : No

Audio #1
ID                          : 2
Format                      : AC-3
Format/Info                 : Audio Coding 3
Commercial name             : Dolby Digital
Codec ID                    : A_AC3
Duration                    : 1 h 41 min
Bit rate mode               : Constant
Bit rate                    : 192 kb/s
Channel(s)                  : 2 channels
Channel layout              : L R
Sampling rate               : 48.0 kHz
Frame rate                  : 31.250 FPS (1536 SPF)
Bit depth                   : 16 bits
Compression mode            : Lossy
Stream size                 : 140 MiB (9%)
Title                       : Українська
Language                    : Ukrainian
Service kind                : Complete Main
Default                     : Yes
Forced                      : No

Audio #2
ID                          : 3
Format                      : AC-3
Format/Info                 : Audio Coding 3
Commercial name             : Dolby Digital
Codec ID                    : A_AC3
Duration                    : 1 h 41 min
Bit rate mode               : Constant
Bit rate                    : 192 kb/s
Channel(s)                  : 2 channels
Channel layout              : L R
Sampling rate               : 48.0 kHz
Frame rate                  : 31.250 FPS (1536 SPF)
Bit depth                   : 16 bits
Compression mode            : Lossy
Stream size                 : 140 MiB (9%)
Title                       : Англійська
Language                    : English
Service kind                : Complete Main
Default                     : No
Forced                      : No

Text
ID                          : 4
Format                      : UTF-8
Codec ID                    : S_TEXT/UTF8
Codec ID/Info               : UTF-8 Plain Text
Language                    : English
Default                     : No
Forced                      : No
Скріншоти



Озвучено творчим об'єднанням:
Ролі озвучили: Семен Птаха, Мар'яна Янкевич, Євген Малуха, Юля Малахова, Олексій Сафін, Олександр Чернов, Олекса Мельник та Матвій Ніколаєв.


Авторський реліз (завантажувати можна без реєстрації)
 Трекер:    Зареєстрований   

Завантажити / скачати фільм українською



відео для новачків



 Зареєстрований:   2020-03-29 19:27
 Розмір:   1.58 GB 
 Оцінка фільму:   8.3/10 (Голосів: 17)
 Переклали та озвучили фільм українською мовою!
   
11FrYkT 
Модератор відео


З нами з: 20.02.11
Востаннє: 14.07.20
Повідомлень: 6953

2020-03-30 12:37  
Цікава ідея написано:

Codec ID                    : V_MS/VFW/FOURCC /
Codec ID/Hint               :

Цікава ідея написано:
The Curse of the Jade Scorpion (2001) AVC [Ukr.Eng sub.ENG] [TSikava Ideya].

треба замінити відео, таке співвідношення заборонене

Цікава ідея 
VIP


З нами з: 26.12.11
Востаннє: 14.07.20
Повідомлень: 520

2020-03-30 13:36  
11FrYkT
Дайте, будь ласка, посилання на не заборонене співвідношення.

igor911 
Модератор відео


З нами з: 18.01.08
Востаннє: 14.07.20
Повідомлень: 14888

2020-03-30 14:04  
11FrYkT написано:
таке співвідношення заборонене

це помилка, заборонено для HD релізів. Для SD релізів може бути запакований в будь-який контейнер, хоча сенсу його пакувати в небагато, звичайно.

Додано через 1 хвилину 3 секунди:

Цікава ідея написано:
AVC
...кодек:

а ось це треба виправити -->

11FrYkT 
Модератор відео


З нами з: 20.02.11
Востаннє: 14.07.20
Повідомлень: 6953

2020-03-30 14:06  
igor911 написано:
це помилка, заборонено для HD релізів

ну ми якось говорили в ПП що всі релізи такі то не можна, в тому чичлі і СД

Dmytro_UK 
Новенький


З нами з: 09.08.16
Востаннє: 14.07.20
Повідомлень: 13

2020-03-30 21:58  
Не можу повірити, мій улюблений фільм, що його я вже й не мріяв подивитися українською! Розцілував би!
igor911 
Модератор відео


З нами з: 18.01.08
Востаннє: 14.07.20
Повідомлень: 14888

2020-03-31 10:23  
11FrYkT написано:
ну ми якось говорили в ПП що всі релізи такі то не можна, в тому чичлі і СД

очевидно вже забув. Бажано обговорити це з іншими модераторами відео, Адміном і внести в Правила відео.

dreamer 
VIP


З нами з: 10.05.08
Востаннє: 14.07.20
Повідомлень: 647

2020-05-01 20:30  
стрічка сподобалася...8 з 10 .Дякую..
kinoroman 
Поважний учасник


З нами з: 04.12.16
Востаннє: 14.07.20
Повідомлень: 152

2020-05-16 17:18  
Симпатична комедія. Легенька, трошки навіть гламурна. 8/10.
Дякую всім причетним до релізу.

dihor 
Частий відвідувач


З нами з: 06.04.11
Востаннє: 14.07.20
Повідомлень: 49

2020-06-18 17:43  
Дякую!
Ваш часовий пояс: GMT + 2 Години

Нова тема   Відповісти