Чарівний гаманець / Das Zauberbuch / Kouzelný měšec (1996) AVC Ukr/Cz

Нові коментарі

Нова тема   Відповісти
Автор Повідомлення
Arsenfpu 
Відео Гуртом - фільмокрай
Відео Гуртом - фільмокрай


З нами з: 30.04.09
Востаннє: 10.07.20
Повідомлень: 7049

2020-03-29 15:20  
Чарівний гаманець / Das Zauberbuch / Kouzelný měšec (1996) AVC Ukr/Cz

Чарівний гаманець / Das Zauberbuch / Kouzelný měšec (1996) AVC Ukr/Cz


Жанр: казка, сімейний, фентезі
Країна: Чехія, Німеччина



Режисер: Вацлав Ворлічек
Актори: Тіна Руланд, Махул Боканова, Онджей Ветхі, Саша Расілов, Рудольф Хрушінскі, Петро Нарожна

Сюжет:
Королівська дочка Бланка, спадкоємиця чарівного гаманця, мріє вийти заміж по любові. Зла чарівниця Ельфріда прагне заволодіти цим гаманцем, який обсипає незліченною кількістю золотих монет. Її хитромудрий план руйнує юний сажотрус. Прекрасна Бланка полюбила хлопця, навіть не знаючи, що він-то і є справжній принц.


Тривалість: 01:26:07
Якість:
Відео:
кодек:
розмір кадру: 1 024 х 576
бітрейт: 2 500 кб/с

Аудіо # 1:
мова: українська
переклад: багатоголосий закадровий UA: Культура
кодек: 2.0
бітрейт: 192 кб/с

Аудіо # 2:
мова: чеська
переклад: оригінал
кодек: 2.0
бітрейт: 192 кб/с
Скріншоти














Про файл
General
Unique ID : 295178810963574003107856333601717227923 (0xDE115F004CF3814E01BBF6C674421193)
Complete name : C:\Das Zauberbuch (1996) [Ukr,Cz] AVC [Hurtom].
Format :
Format version : Version 4 / Version 2
File size : 1.74 GiB
Duration : 1 h 26 min
Overall bit rate : 2 886 kb/s
Movie name : Чарівний гаманець / Das Zauberbuch / Kouzelný měšec (1996)
Encoded date : UTC 2020-04-05 07:56:11
Writing application : v21.0.0 ('Tardigrades Will Inherit The Earth') 32-bit
Writing library : libebml v1.3.5 + v1.4.8
Cover : Yes
Attachments : cover.jpg

Video
ID : 1
Format : AVC
Format/Info : Advanced Video Codec
Format profile : [email protected]
Format settings, CABAC : Yes
Format settings, ReFrames : 4 frames
Codec ID : V_MPEG4/ISO/AVC
Duration : 1 h 26 min
Bit rate : 2 500 kb/s
Width : 1 024 pixels
Height : 576 pixels
Display aspect ratio : 16:9
Frame rate mode : Constant
Frame rate : 25.000 FPS
Color space : YUV
Chroma subsampling : 4:2:0
Bit depth : 8 bits
Scan type : Progressive
Bits/(Pixel*Frame) : 0.170
Stream size : 1.50 GiB (87%)
Writing library : core 157 r2935 545de2f
Encoding settings : cabac=1 / ref=3 / deblock=1:-1:-1 / analyse=0x3:0x113 / me=hex / subme=7 / psy=1 / psy_rd=1.00:0.15 / mixed_ref=1 / me_range=16 / chroma_me=1 / trellis=1 / 8x8dct=1 / cqm=0 / deadzone=21,11 / fast_pskip=1 / chroma_qp_offset=-3 / threads=12 / lookahead_threads=2 / sliced_threads=0 / nr=0 / decimate=1 / interlaced=0 / bluray_compat=0 / constrained_intra=0 / bframes=3 / b_pyramid=2 / b_adapt=1 / b_bias=0 / direct=1 / weightb=1 / open_gop=0 / weightp=2 / keyint=250 / keyint_min=25 / scenecut=40 / intra_refresh=0 / rc_lookahead=40 / rc=2pass / mbtree=1 / bitrate=2500 / ratetol=1.0 / qcomp=0.60 / qpmin=0 / qpmax=69 / qpstep=4 / cplxblur=20.0 / qblur=0.5 / ip_ratio=1.40 / aq=1:1.00
Default : Yes
Forced : No

Audio #1
ID : 2
Format : AC-3
Format/Info : Audio Coding 3
Mode extension : CM (complete main)
Format settings, Endianness : Big
Codec ID : A_AC3
Duration : 1 h 26 min
Bit rate mode : Constant
Bit rate : 192 kb/s
Channel(s) : 2 channels
Channel positions : Front: L R
Sampling rate : 48.0 kHz
Frame rate : 31.250 FPS (1536 spf)
Compression mode : Lossy
Stream size : 118 MiB (7%)
Title : UA: Культура
Language : Ukrainian
Default : Yes
Forced : Yes

Audio #2
ID : 3
Format : AC-3
Format/Info : Audio Coding 3
Mode extension : CM (complete main)
Format settings, Endianness : Big
Codec ID : A_AC3
Duration : 1 h 26 min
Bit rate mode : Constant
Bit rate : 192 kb/s
Channel(s) : 2 channels
Channel positions : Front: L R
Sampling rate : 48.0 kHz
Frame rate : 31.250 FPS (1536 spf)
Compression mode : Lossy
Stream size : 118 MiB (7%)
Language : Czech
Default : No
Forced : No
Джерело:
Особиста оцінка: не дивився


Срібний реліз (на рейтинг впливає 50% завантаженого)
 Трекер:    Зареєстрований   

Завантажити / скачати фільм українською



відео для новачків



 Зареєстрований:   2020-04-05 12:03
 Розмір:   1.74 GB 
 Оцінка фільму:   9/10 (Голосів: 4)
   
bot 
робот


З нами з: 30.09.07
Востаннє: 26.05.05
Повідомлень: 25026

2020-04-05 12:03  
Тему перенесено з Анонси релізів до форуму Фільми


Arsenfpu

Ваш часовий пояс: GMT + 2 Години

Нова тема   Відповісти