Аліса в країні чудес / Alice in Wonderland (1951) AVC

Нові коментарі

Нова тема   Відповісти
Автор Повідомлення
UFDUB_TR 
Свій


З нами з: 08.02.20
Востаннє: 27.10.20
Повідомлень: 54

2020-03-28 20:29  
Аліса в країні чудес / Alice in Wonderland (1951) AVC




Країна:США
Рік виходу: 1951
Жанри: Казки, Комедія, Мультфільм, Реліз, Фантастика
Тривалість: 01:15:17
Режисер: Клайд Джеронімі, Вілфред Джексон, Гемільтон Ласкі
Студія:Walt Disney



Сюжет::
Аліса винахідлива і страшенно допитлива дівчинка. Вона постійно потрапляє в незвичайні ситуації, не звертаючи найменшої уваги на їх абсурдність. Якими б важкими ці ситуації не були, Аліса завжди знайде вихід або ж просто придумає його



Якість:
Відео:
кодек:
розмір кадру: 712 х 540
бітрейт:1 621 кб/с

Аудіо:
мова: українська
переклад: Багатоголосий закадровий
кодек: 2.0
бітрейт: 128 кб/с


Переклад та озвучення виконано:
Переклад: SHEVA777
Ролі озвучили: Hoshi, Bitari, Drakulla, Dark_Undine, Artymko, VOLCUA
Робота зі звуком: VOLCUA
Студія: UFDUB.com
Постер:Otaku-First

Тех. деталі ^_^

General
Complete name : D:\[UFDUB_com] Аліса в країні чудес-Alice in Wonderland - Фільм.mp4
Format : MPEG-4
Format profile : Base Media
Codec ID : isom (isom/iso2/avc1/mp41)
File size : 946 MiB
Duration : 1 h 15 min
Overall bit rate : 1 757 kb/s
Movie name : Алиса в стране чудес / Alice in Wonderland (195) egiko'xz
Writing application : Lavf58.39.101
Video
ID : 1
Format : AVC
Format/Info : Advanced Video Codec
Format profile : [email protected]
Format settings : CABAC / 12 Ref Frames
Format settings, CABAC : Yes
Format settings, Reference : 12 frames
Codec ID : avc1
Codec ID/Info : Advanced Video Coding
Duration : 1 h 15 min
Bit rate : 1 621 kb/s
Width : 712 pixels
Height : 540 pixels
Display aspect ratio : 4:3
Frame rate mode : Variable
Frame rate : 23.976 (24000/1001) FPS
Minimum frame rate : 23.564 FPS
Maximum frame rate : 24.390 FPS
Color space : YUV
Chroma subsampling : 4:2:0
Bit depth : 8 bits
Scan type : Progressive
Bits/(Pixel*Frame) : 0.176
Stream size : 873 MiB (92%)
Writing library : core 144 r2525kMod 40bb568
Encoding settings : cabac=1 / ref=12 / deblock=1:1:1 / analyse=0x3:0x133 / me=umh / subme=10 / psy=1 / fade_compensate=0.00 / psy_rd=0.40:0.00 / mixed_ref=1 / me_range=32 / chroma_me=1 / trellis=2 / 8x8dct=1 / cqm=0 / deadzone=21,11 / fast_pskip=0 / chroma_qp_offset=-2 / threads=6 / lookahead_threads=1 / sliced_threads=0 / nr=0 / decimate=1 / interlaced=0 / bluray_compat=0 / constrained_intra=0 / fgo=0 / bframes=12 / b_pyramid=2 / b_adapt=2 / b_bias=0 / direct=3 / weightb=1 / open_gop=0 / weightp=2 / keyint=240 / keyint_min=23 / scenecut=40 / intra_refresh=0 / rc_lookahead=60 / rc=2pass / mbtree=1 / bitrate=1621 / ratetol=1.0 / qcomp=0.60 / qpmin=0 / qpmax=69 / qpstep=4 / cplxblur=20.0 / qblur=0.5 / vbv_maxrate=62500 / vbv_bufsize=78125 / nal_hrd=none / filler=0 / ip_ratio=1.40 / aq=1:0.60
Language : English
mdhd_Duration : 4516179
Codec configuration box : avcC

Audio
ID : 2
Format : LC
Format/Info : Advanced Audio Codec Low Complexity
Codec ID : mp4a-40-2
Duration : 1 h 15 min
Bit rate mode : Constant
Bit rate : 128 kb/s
Channel(s) : 2 channels
Channel layout : L R
Sampling rate : 44.1 kHz
Frame rate : 43.066 FPS (1024 SPF)
Compression mode : Lossy
Stream size : 69.2 MiB (7%)
Default : Yes
Alternate group : 1
Скріншоти

Завантажили? - Роздавай! Просимо, не йдіть з роздачі!




Авторський реліз (завантажувати можна без реєстрації)
 Трекер:    Зареєстрований   

Завантажити / скачати мультфільм українською



відео для новачків



 Зареєстрований:   2020-03-28 20:29
 Розмір:   946 MB 
 Оцінка мультфільму:   9.3/10 (Голосів: 19)
   
Wiwisisilka1 
Частий відвідувач


З нами з: 10.11.19
Востаннє: 28.10.20
Повідомлень: 44

2020-03-28 22:39  
Те ж саме, в розділ-Мультфільми, перед тим як робити релізи раджу хоч прочитати правила.
bot 
робот


З нами з: 30.09.07
Востаннє: 26.05.05
Повідомлень: 25984

2020-03-29 10:31  
Тему перенесено з Фільми до форуму Мультфільми


kino.

UFDUB_TR 
Свій


З нами з: 08.02.20
Востаннє: 27.10.20
Повідомлень: 54

2020-03-29 11:54  
За постер
Велике дякую пану Otaku-First

MutuLI 
Відео Гуртом - фільмокрай
Відео Гуртом - фільмокрай


З нами з: 08.03.09
Востаннє: 28.10.20
Повідомлень: 1970

2020-04-14 13:31  
UFDUB_TR можна очікувати кращих параметрів звуку, чи залишаєте те що є.
vovkulaka1 
Новенький


З нами з: 21.09.16
Востаннє: 20.07.20
Повідомлень: 13

2020-06-12 18:51  
Дякую за озвучення, але шкода, що не використали у назві "Дивокрай"
Ваш часовий пояс: GMT + 2 Години

Нова тема   Відповісти