Кінь БоДжек (Сезон 5) / BoJack Horseman (Season 5) (2018) 1080p Ukr/Eng

Нові коментарі

Нова тема   Відповісти
Автор Повідомлення
simpsonsua 
VIP


З нами з: 13.03.18
Востаннє: 10.04.21
Повідомлень: 357

2020-03-28 20:34  
AVC | 1080p

Кінь БоДжек (Сезон 5) / BoJack Horseman (Season 5) (2018) 1080p Ukr/Eng


Кінь БоДжек (Сезон 5) / BoJack Horseman (Season 5) (2018) 1080p Ukr/Eng


Якщо вам сподобалося озвучення мультсеріалу,
то ви можете підтримати нас за посиланням
ТИЦЬ


Жанр: сатира, трагікомедія, драма, фарс
Країна: США



Кінокомпанія: Tornante Company, ShadowMachine, Netflix
Режисер: Рафаель Боб-Ваксберґ
Актори/ролі озвучують: Вілл Арнетт, Емі Седаріс, Елісон Брі, Аарон Пол та інші

Сюжет:
Дія відбувається в світі, населеному антропоморфними тваринами і людьми. Велика частина сюжету відбувається в Лос-Анджелесі. БоДжек — зірка ситуаційної комедії «Викинути коника», популярної наприкінці 80-х — початку 90-х років. На момент часу, висвітлений у серіалі, БоДжек переживає кризу середнього віку. У спробах повернути колишню популярність і любов публіки БоДжек намагається написати автобіографічну книгу. Але не справляється з цим через власну лінь. Після умовлянь агента і видавця БоДжек наймає письменницю Даєн Нґуєн, яка проводить з ним багато часу, інтерв'юючи його і дізнаючись про його минуле і роботу в серіалі.


Перекладено та озвучено студією сайту simpsonsua.tv за підтримки fishMD


Тривалість: 1 серія: 24 хв. (цілком серій: 12)
Перелік серій

01. The Light Bulb Scene
02. The Dog Days Are Over
03. Planned Obsolescence
04. BoJack the Feminist
05. The Amelia Earhart Story
06. Free Churro
07. INT. SUB
08. Mr. Peanutbutter's Boos
09. Ancient History
10. Head in the Clouds
11. The Showstopper
12. The Stopped Show
Якість: 1080p
Відео:
кодек:
розмір кадру: 1920 х 1080
бітрейт: ~ 8 000 кб/с

Аудіо # 1:
мова: українська | "simpsonsua.tv"
озвучення: професійне багатоголосе закадрове
кодек: 5.1
бітрейт: 448 кб/с

Аудіо # 2:
мова: англійська
переклад: оригінал
кодек: E- 5.1
бітрейт: 640 kb/s
Info
Format :
Format version : Version 4
File size : 1.16 GiB
Duration : 26 min 14 s
Overall bit rate mode : Variable
Overall bit rate : 6 315 kb/s
Movie name : Кінь БоДжек / BoJack Horseman - S05E01 (2018) 1080p [Ukr.Eng] [simpsonsua.tv]
Encoded date : UTC 2020-03-22 14:34:26
Writing application : v6.8.0 ('Theme for Great Cities') 32bit built on Mar 2 2014 21:27:07
Writing library : libebml v1.3.0 + v1.4.1

Video
ID : 1
Format : AVC
Format/Info : Advanced Video Codec
Format profile : [email protected]
Format settings : CABAC / 3 Ref Frames
Format settings, CABAC : Yes
Format settings, Reference : 3 frames
Codec ID : V_MPEG4/ISO/AVC
Duration : 26 min 14 s
Bit rate mode : Variable
Bit rate : 5 102 kb/s
Nominal bit rate : 5 360 kb/s
Maximum bit rate : 8 040 kb/s
Width : 1 920 pixels
Height : 1 080 pixels
Display aspect ratio : 16:9
Frame rate mode : Constant
Frame rate : 23.976 (24000/1001) FPS
Color space : YUV
Chroma subsampling : 4:2:0
Bit depth : 8 bits
Scan type : Progressive
Bits/(Pixel*Frame) : 0.103
Stream size : 957 MiB (81%)
Writing library : core 148 r2715 7e75228
Encoding settings : cabac=1 / ref=3 / deblock=1:0:0 / analyse=0x1:0x111 / me=umh / subme=10 / psy=1 / psy_rd=1.00:0.00 / mixed_ref=1 / me_range=24 / chroma_me=1 / trellis=2 / 8x8dct=0 / cqm=0 / deadzone=21,11 / fast_pskip=1 / chroma_qp_offset=-2 / threads=8 / lookahead_threads=1 / sliced_threads=0 / nr=0 / decimate=1 / interlaced=0 / bluray_compat=0 / stitchable=1 / constrained_intra=0 / bframes=2 / b_pyramid=0 / b_adapt=2 / b_bias=0 / direct=3 / weightb=1 / open_gop=0 / weightp=2 / keyint=48 / keyint_min=25 / scenecut=0 / intra_refresh=0 / rc_lookahead=48 / rc=2pass / mbtree=1 / bitrate=5360 / ratetol=1.0 / qcomp=0.50 / qpmin=6 / qpmax=51 / qpstep=4 / cplxblur=20.0 / qblur=0.5 / vbv_maxrate=8040 / vbv_bufsize=10720 / nal_hrd=vbr / filler=0 / ip_ratio=1.40 / aq=1:1.00
Default : Yes
Forced : No

Audio #1
ID : 2
Format : AC-3
Format/Info : Audio Coding 3
Commercial name : Dolby Digital
Codec ID : A_AC3
Duration : 26 min 14 s
Bit rate mode : Constant
Bit rate : 448 kb/s
Channel(s) : 6 channels
Channel layout : L R C LFE Ls Rs
Sampling rate : 48.0 kHz
Frame rate : 31.250 FPS (1536 SPF)
Bit depth : 16 bits
Compression mode : Lossy
Stream size : 84.1 MiB (7%)
Title : Українська
Language : Ukrainian
Service kind : Complete Main
Default : Yes
Forced : No

Audio #2
ID : 3
Format : E-AC-3
Format/Info : Enhanced AC-3
Commercial name : Dolby Digital Plus
Codec ID : A_EAC3
Duration : 26 min 14 s
Bit rate mode : Constant
Bit rate : 640 kb/s
Channel(s) : 6 channels
Channel layout : L R C LFE Ls Rs
Sampling rate : 48.0 kHz
Frame rate : 31.250 FPS (1536 SPF)
Compression mode : Lossy
Stream size : 120 MiB (10%)
Language : English
Service kind : Complete Main
Default : No
Forced : No
Скріншоти:


Озвучено студією сайту:
Ролі озвучили: Євген Малуха, Семен Птаха, Юлія Малахова, Олексій Сафін, Наталія Калюжна, Олекса Мельник, Мар'яна Янкевич та Андрій Корзаченко


Авторський реліз (завантажувати можна без реєстрації)
 Трекер:    Зареєстрований   

Завантажити / скачати мультфільм українською



відео для новачків



 Зареєстрований:   2020-03-28 20:34
 Розмір:   12.76 GB 
 Оцінка мультсеріалу:   9.7/10 (Голосів: 6)
 Перекладено та озвучено 5 сезон.
   
simpsonsua 
VIP


З нами з: 13.03.18
Востаннє: 10.04.21
Повідомлень: 357

2020-03-28 20:37  
Переклали та озвучили весь сезон.

Бажаємо всім приємного перегляду.

Argentum 
VIP


З нами з: 25.09.11
Востаннє: 14.04.21
Повідомлень: 309

2020-04-08 16:40  
simpsonsua,
simpsonsua написано:

Переклали та озвучили весь сезон.

Бажаємо всім приємного перегляду.

Дякую за гарну якість озвучки та можливість переглянути цей чудовий серіал українською. Чи планується озвучка 6го сезону? Завчасно дякую.

simpsonsua 
VIP


З нами з: 13.03.18
Востаннє: 10.04.21
Повідомлень: 357

2020-04-08 16:48  
Argentum написано:
Дякую за гарну якість озвучки та можливість переглянути цей чудовий серіал українською. Чи планується озвучка 6го сезону? Завчасно дякую.


Дуже приємно! 6 сезон вже перекладений та озвучений і знаходиться на зведенні. Нам треба ще декілька днів і буде реліз.

Lyolic 
VIP


З нами з: 04.08.09
Востаннє: 14.04.21
Повідомлень: 598

2020-04-08 18:55  
Цей сезон як і попередній, з рекламою?
simpsonsua 
VIP


З нами з: 13.03.18
Востаннє: 10.04.21
Повідомлень: 357

2020-04-08 19:04  
Lyolic написано:
Цей сезон як і попередній, з рекламою?


Якою рекламою? Ви про що?

Lyolic 
VIP


З нами з: 04.08.09
Востаннє: 14.04.21
Повідомлень: 598

2020-04-08 19:08  
simpsonsua
Та якийсь підступний злодій напихав в озвучку рекламу simpsonsua ) Ви не помітили? )

simpsonsua 
VIP


З нами з: 13.03.18
Востаннє: 10.04.21
Повідомлень: 357

2020-04-08 19:11  
Lyolic

Це інформація ким було перекладено, озвучено та за чиї кошти. Не займайтеся дурницями.

Argentum 
VIP


З нами з: 25.09.11
Востаннє: 14.04.21
Повідомлень: 309

2020-04-08 19:11  
simpsonsua написано:
Дуже приємно! 6 сезон вже перекладений та озвучений і знаходиться на зведенні. Нам треба ще декілька днів і буде реліз.

Дякую за інформацію. З нетерпінням чекаю :-)

Lyolic 
VIP


З нами з: 04.08.09
Востаннє: 14.04.21
Повідомлень: 598

2020-04-08 19:15  
simpsonsua написано:
Не займайтеся дурницями.

Спокійніше ) Я просто запитав. Самореклама - теж реклама. Там дві вставки, реклама і інформація.

simpsonsua 
VIP


З нами з: 13.03.18
Востаннє: 10.04.21
Повідомлень: 357

2020-04-08 19:19  
Lyolic

Глядачі мають знати завдяки кому виходить озвучення! Тепер і ви знаєте!)

Lyolic 
VIP


З нами з: 04.08.09
Востаннє: 14.04.21
Повідомлень: 598

2020-04-08 19:23  
simpsonsua
Нам вистачило би інфи в кінці, на титрах

simpsonsua 
VIP


З нами з: 13.03.18
Востаннє: 10.04.21
Повідомлень: 357

2020-04-08 19:25  
Lyolic

Впевнені?)

Lyolic 
VIP


З нами з: 04.08.09
Востаннє: 14.04.21
Повідомлень: 598

2020-04-08 19:26  
simpsonsua
Наче ж вже все вирішили. Нудно? )

simpsonsua 
VIP


З нами з: 13.03.18
Востаннє: 10.04.21
Повідомлень: 357

2020-04-08 19:28  
Lyolic
Все було вирішено ще до ваших повідомлень) Для чого ви взагалі це почали? Все ж норм)

Lyolic 
VIP


З нами з: 04.08.09
Востаннє: 14.04.21
Повідомлень: 598

2020-04-08 19:38  
simpsonsua
Ще раз, ми просто запитали ) Треба було просто написати, що є реклама, і більше не було би питань. А краще взагалі в описі попереджати, тоді питань взагалі не було б.

simpsonsua 
VIP


З нами з: 13.03.18
Востаннє: 10.04.21
Повідомлень: 357

2020-04-08 19:42  
Lyolic
Спасибі! Бажаємо вам приємного перегляду)

Ваш часовий пояс: GMT + 2 Години

Нова тема   Відповісти