Поклик пращурів / The Call of the Wild (2020) 1080p Ukr/Eng | Sub Ukr/Eng

Нові коментарі

Нова тема   Відповісти
Автор Повідомлення
Anonymous 







2020-03-28 14:51  
Поклик пращурів / The Call of the Wild (2020) 1080p Ukr/Eng | Sub Ukr/Eng


Жанр: драма, пригодницький, сімейний
Країна: США



Кінокомпанія: 20th Century Fox, 3 Arts Entertainment, TSG Entertainment
Режисер: Кріс Сандерс
Актори: Гаррісон Форд, Террі Нотарі, Карен Гіллан, Ден Стівенс, Бредлі Вітфорд, Джин Луіза Келлі, Омар Сі, Уес Браун, Престон Бейлі

Сюжет:
Історія справжньої дружби золотошукача Джона Торнтона і пса Бака, який потрапляє зі свого затишного будинку в Каліфорнії в суворі холоди канадського Юкону у часи золотої лихоманки.


Тривалість: 01:39:42
Якість: 1080p

Відео:
кодек:
розмір кадру: 1920 х 804
бітрейт: 11,6 Мб/с

Аудіо # 1:
мова: українська
переклад: професійний дубльований
кодек: 5.1
бітрейт: 384 кб/с

Аудіо # 2:
мова: англійська
переклад: оригінал
кодек: 5.1
бітрейт: 640 кб/с

Субтитри: (Forced, Full)
мова: українська
тип: програмні (м'які)
формат: *.srt

Субтитри: (Full, SDH)
мова: англійська
тип: програмні (м'які)
формат: *.srt

Збережено оригінальні розділи, як на Blu-ray
Info
Код:
General
Complete name                            : The Call of the Wild (2020) 1080p [UKR_ENG] [Video_Hurtom].
Format                                   :
Format version                           : Version 4
File size                                : 8.79 GiB
Duration                                 : 1 h 39 min
Overall bit rate                         : 12.6 Mb/s
Movie name                               : Поклик пращурів / The Call of the Wild (2020)
Encoded date                             : UTC 2020-05-23 18:43:02
Writing application                      : v30.1.0 ('Forever And More') 64-bit
Writing library                          : libebml v1.3.6 + v1.4.9
Cover                                    : Yes
Attachments                              : cover.jpg

Video
ID                                       : 1
Format                                   : AVC
Format/Info                              : Advanced Video Codec
Format profile                           : [email protected]
Format settings                          : CABAC / 5 Ref Frames
Format settings, CABAC                   : Yes
Format settings, RefFrames               : 5 frames
Codec ID                                 : V_MPEG4/ISO/AVC
Duration                                 : 1 h 39 min
Bit rate                                 : 11.6 Mb/s
Width                                    : 1 920 pixels
Height                                   : 804 pixels
Display aspect ratio                     : 2.40:1
Frame rate mode                          : Constant
Frame rate                               : 23.976 (24000/1001) FPS
Color space                              : YUV
Chroma subsampling                       : 4:2:0
Bit depth                                : 8 bits
Scan type                                : Progressive
Bits/(Pixel*Frame)                       : 0.313
Stream size                              : 8.08 GiB (92%)
Writing library                          : core 160 r3000 33f9e14
Encoding settings                        : cabac=1 / ref=5 / deblock=1:-3:-3 / analyse=0x3:0x133 / me=umh / subme=10 / psy=1 / psy_rd=1.00:0.00 / mixed_ref=1 / me_range=32 / chroma_me=1 / trellis=2 / 8x8dct=1 / cqm=0 / deadzone=21,11 / fast_pskip=0 / chroma_qp_offset=-2 / threads=12 / lookahead_threads=2 / sliced_threads=0 / nr=0 / decimate=0 / interlaced=0 / bluray_compat=0 / constrained_intra=0 / bframes=8 / b_pyramid=2 / b_adapt=2 / b_bias=0 / direct=3 / weightb=1 / open_gop=0 / weightp=2 / keyint=250 / keyint_min=23 / scenecut=40 / intra_refresh=0 / rc=crf / mbtree=0 / crf=15.0 / qcomp=0.60 / qpmin=0 / qpmax=69 / qpstep=4 / ip_ratio=1.40 / pb_ratio=1.30 / aq=3:0.80
Language                                 : English
Default                                  : Yes
Forced                                   : No

Audio #1
ID                                       : 2
Format                                   : AC-3
Format/Info                              : Audio Coding 3
Commercial name                          : Dolby Digital
Codec ID                                 : A_AC3
Duration                                 : 1 h 39 min
Bit rate mode                            : Constant
Bit rate                                 : 384 kb/s
Channel(s)                               : 6 channels
Channel layout                           : L R C LFE Ls Rs
Sampling rate                            : 48.0 kHz
Frame rate                               : 31.250 FPS (1536 SPF)
Bit depth                                : 16 bits
Compression mode                         : Lossy
Stream size                              : 274 MiB (3%)
Title                                    : 5.1 | 384
Language                                 : Ukrainian
Service kind                             : Complete Main
Default                                  : Yes
Forced                                   : No

Audio #2
ID                                       : 3
Format                                   : AC-3
Format/Info                              : Audio Coding 3
Commercial name                          : Dolby Digital
Codec ID                                 : A_AC3
Duration                                 : 1 h 39 min
Bit rate mode                            : Constant
Bit rate                                 : 640 kb/s
Channel(s)                               : 6 channels
Channel layout                           : L R C LFE Ls Rs
Sampling rate                            : 48.0 kHz
Frame rate                               : 31.250 FPS (1536 SPF)
Bit depth                                : 16 bits
Compression mode                         : Lossy
Stream size                              : 456 MiB (5%)
Title                                    : 5.1 | 640
Language                                 : English
Service kind                             : Complete Main
Default                                  : No
Forced                                   : No

Text #1
ID                                       : 4
Format                                   : UTF-8
Codec ID                                 : S_TEXT/UTF8
Codec ID/Info                            : UTF-8 Plain Text
Duration                                 : 54 min 30 s
Bit rate                                 : 0 b/s
Count of elements                        : 2
Stream size                              : 39.0 Bytes (0%)
Title                                    : Forced
Language                                 : Ukrainian
Default                                  : Yes
Forced                                   : No

Text #2
ID                                       : 5
Format                                   : UTF-8
Codec ID                                 : S_TEXT/UTF8
Codec ID/Info                            : UTF-8 Plain Text
Duration                                 : 1 h 38 min
Bit rate                                 : 34 b/s
Count of elements                        : 764
Stream size                              : 24.7 KiB (0%)
Title                                    : Full
Language                                 : Ukrainian
Default                                  : No
Forced                                   : No

Text #3
ID                                       : 6
Format                                   : UTF-8
Codec ID                                 : S_TEXT/UTF8
Codec ID/Info                            : UTF-8 Plain Text
Duration                                 : 1 h 38 min
Bit rate                                 : 23 b/s
Count of elements                        : 805
Stream size                              : 17.0 KiB (0%)
Title                                    : Full
Language                                 : English
Default                                  : No
Forced                                   : No

Text #4
ID                                       : 7
Format                                   : UTF-8
Codec ID                                 : S_TEXT/UTF8
Codec ID/Info                            : UTF-8 Plain Text
Duration                                 : 1 h 39 min
Bit rate                                 : 32 b/s
Count of elements                        : 1196
Stream size                              : 23.4 KiB (0%)
Title                                    : SDH
Language                                 : English
Default                                  : No
Forced                                   : No

Menu
00:00:00.000                             : en:Chapter 01
00:03:35.882                             : en:Chapter 02
00:05:58.608                             : en:Chapter 03
00:10:31.339                             : en:Chapter 04
00:15:49.699                             : en:Chapter 05
00:19:03.851                             : en:Chapter 06
00:23:29.533                             : en:Chapter 07
00:27:28.355                             : en:Chapter 08
00:32:27.821                             : en:Chapter 09
00:34:32.529                             : en:Chapter 10
00:41:43.793                             : en:Chapter 11
00:46:14.522                             : en:Chapter 12
00:50:07.338                             : en:Chapter 13
00:55:15.562                             : en:Chapter 14
01:00:30.919                             : en:Chapter 15
01:04:04.632                             : en:Chapter 16
01:07:46.980                             : en:Chapter 17
01:12:38.563                             : en:Chapter 18
01:17:02.952                             : en:Chapter 19
01:19:25.219                             : en:Chapter 20
01:23:07.107                             : en:Chapter 21
01:26:21.218                             : en:Chapter 22
01:29:26.194                             : en:Chapter 23
01:32:22.620                             : en:Chapter 24
Скріншоти


Джерело: &
Особиста оцінка: 9 - давно не бачив настільки якісне кіно


 Трекер:    Зареєстрований   

Завантажити / скачати фільм українською



відео для новачків



 Зареєстрований:   2020-05-23 22:06
 Розмір:   8.79 GB 
 Оцінка фільму:   9.2/10 (Голосів: 84)
   
olimpian1 
VIP


З нами з: 19.10.13
Востаннє: 24.09.20
Повідомлень: 290

2020-03-28 15:13  
Оперативно! Дякую.
Відьмачечок 
Свій


З нами з: 17.05.11
Востаннє: 28.09.20
Повідомлень: 127

2020-03-28 15:14  
Дякую, забрав
alexandr_b 
Частий відвідувач


З нами з: 11.03.09
Востаннє: 28.09.20
Повідомлень: 46

2020-03-28 16:39  
дякую!
mixobasini 
Новенький


З нами з: 09.05.17
Востаннє: 28.09.20
Повідомлень: 8

2020-03-29 08:52  
Чудовий фільм! От же, страшній людини звіря нема.
eten 
Новенький


З нами з: 02.03.09
Востаннє: 27.09.20
Повідомлень: 9

2020-03-29 21:44  
Фільм так собі. Від компютерного пса просто нудить
Wensun 
Поважний учасник


З нами з: 20.01.09
Востаннє: 28.09.20
Повідомлень: 180

2020-03-30 22:18  
та, компютерний пес то просто... чекав реально більшого, а вийшла казочка для дітей до 12 років... сюжет слабий. Форд в кінці, взагалі непонятне яесь кіно.... 5/10
+380954897458 
VIP


З нами з: 02.06.17
Востаннє: 18.09.20
Повідомлень: 942

2020-03-30 23:10  
Wensun написано:
вийшла казочка для дітей до 12 років


Прокатний рейтинг же дитячий. Ви ж маєте знати що дивитеся!

IRONHIDE 
VIP


З нами з: 06.08.10
Востаннє: 28.09.20
Повідомлень: 279

2020-04-21 09:33  
Сімейний фільм без усіляких тупих сцен....!!!
igor911 
Модератор відео


З нами з: 18.01.08
Востаннє: 29.09.20
Повідомлень: 15007

2020-04-22 22:05  
Українські офіційні субтитри

WaRSneG 
Новенький


З нами з: 23.09.19
Востаннє: 31.08.20
Повідомлень: 8

2020-04-22 22:50  
Чудовий фільм!
O_omarella! 
Поважний учасник


З нами з: 14.06.13
Востаннє: 27.09.20
Повідомлень: 194

2020-04-23 20:41  
Фільм на один раз, але один раз переглянути варто!
Anonymous 







2020-05-02 23:46  
Торент файл оновлено. Заміна відео на 
igor911 
Модератор відео


З нами з: 18.01.08
Востаннє: 29.09.20
Повідомлень: 15007

2020-05-02 23:49  
Цитата:
Заміна відео на

+ допишіть українські субтитри в заголовки

Anonymous 







2020-05-02 23:52  
igor911 написано:
+ допишіть українські субтитри в заголовки

Вже.
Дякую!

Anonymous 







2020-05-23 22:06  
Заміна аудіо на 5.1 | 384
Вино1 
Новенький


З нами з: 23.01.20
Востаннє: 08.07.20
Повідомлень: 6

2020-06-27 17:35  
Мабуть фразочка затерта, але. Книжка кращаHappy
Ваш часовий пояс: GMT + 2 Години

Нова тема   Відповісти