Поклик пращурів / The Call of the Wild (2020) 720p Ukr/Eng | Sub Ukr/Eng

Нові коментарі

Нова тема   Відповісти
Автор Повідомлення
Anonymous 







2020-03-28 14:09  
Поклик пращурів / The Call of the Wild (2020) 720p Ukr/Eng | Sub Ukr/Eng


Жанр: драма, пригоди, сімейний
Країна: США



Кінокомпанія: 20th Century Fox, 3 Arts Entertainment, TSG Entertainment
Режисер: Кріс Сандерс
Актори: Гаррісон Форд, Террі Нотарі, Карен Гіллан, Ден Стівенс, Бредлі Вітфорд, Джин Луіза Келлі, Омар Сі, Уес Браун, Престон Бейлі

Сюжет:
Історія справжньої дружби золотошукача Джона Торнтона і пса Бака, який потрапляє зі свого затишного будинку в Каліфорнії в суворі холоди канадського Юкону у часи золотої лихоманки.


Тривалість: 01:39:42
Якість: 720p

Відео:
кодек:
розмір кадру: 1280x536
бітрейт: 4541 кб/с

Аудіо # 1:
мова: українська
переклад: професійний дубльований
кодек: 5.1
бітрейт: 384 кб/с

Аудіо # 2:
мова: українська
переклад: професійний дубльований
кодек: 2.0
бітрейт: 192 кб/с

Аудіо # 3:
мова: англійська
переклад: оригінал
кодек: 5.1
бітрейт: 640 кб/с

Субтитри: (Forced, Full)
мова: українська
тип: програмні (м'які)
формат: *.srt

Субтитри: (Full, SDH)
мова: англійська
тип: програмні (м'які)
формат: *.srt

Збережено оригінальні розділи, як на Blu-ray
Info
Код:
General
Complete name                            : The Call of the Wild (2020) 720p [UKR_ENG] [Video_Hurtom].
Format                                   :
Format version                           : Version 4
File size                                : 4.01 GiB
Duration                                 : 1 h 39 min
Overall bit rate                         : 5 760 kb/s
Movie name                               : Поклик пращурів / The Call of the Wild (2020)
Encoded date                             : UTC 2020-05-23 16:57:34
Writing application                      : v30.1.0 ('Forever And More') 64-bit
Writing library                          : libebml v1.3.6 + v1.4.9
Cover                                    : Yes
Attachments                              : cover.jpg

Video
ID                                       : 1
Format                                   : AVC
Format/Info                              : Advanced Video Codec
Format profile                           : [email protected]
Format settings                          : CABAC / 12 Ref Frames
Format settings, CABAC                   : Yes
Format settings, RefFrames               : 12 frames
Codec ID                                 : V_MPEG4/ISO/AVC
Duration                                 : 1 h 39 min
Bit rate                                 : 4 541 kb/s
Width                                    : 1 280 pixels
Height                                   : 536 pixels
Display aspect ratio                     : 2.40:1
Frame rate mode                          : Constant
Frame rate                               : 23.976 (24000/1001) FPS
Color space                              : YUV
Chroma subsampling                       : 4:2:0
Bit depth                                : 8 bits
Scan type                                : Progressive
Bits/(Pixel*Frame)                       : 0.276
Stream size                              : 3.16 GiB (79%)
Writing library                          : core 160 r3000 33f9e14
Encoding settings                        : cabac=1 / ref=12 / deblock=1:-3:-3 / analyse=0x3:0x133 / me=umh / subme=10 / psy=1 / psy_rd=1.00:0.00 / mixed_ref=1 / me_range=32 / chroma_me=1 / trellis=2 / 8x8dct=1 / cqm=0 / deadzone=21,11 / fast_pskip=0 / chroma_qp_offset=-2 / threads=12 / lookahead_threads=2 / sliced_threads=0 / nr=0 / decimate=0 / interlaced=0 / bluray_compat=0 / constrained_intra=0 / bframes=8 / b_pyramid=2 / b_adapt=2 / b_bias=0 / direct=3 / weightb=1 / open_gop=0 / weightp=2 / keyint=250 / keyint_min=23 / scenecut=40 / intra_refresh=0 / rc=crf / mbtree=0 / crf=15.2 / qcomp=0.60 / qpmin=0 / qpmax=69 / qpstep=4 / ip_ratio=1.35 / pb_ratio=1.25 / aq=3:0.80
Language                                 : English
Default                                  : Yes
Forced                                   : No

Audio #1
ID                                       : 2
Format                                   : AC-3
Format/Info                              : Audio Coding 3
Commercial name                          : Dolby Digital
Codec ID                                 : A_AC3
Duration                                 : 1 h 39 min
Bit rate mode                            : Constant
Bit rate                                 : 384 kb/s
Channel(s)                               : 6 channels
Channel layout                           : L R C LFE Ls Rs
Sampling rate                            : 48.0 kHz
Frame rate                               : 31.250 FPS (1536 SPF)
Bit depth                                : 16 bits
Compression mode                         : Lossy
Stream size                              : 274 MiB (7%)
Title                                    : 5.1 | 384
Language                                 : Ukrainian
Service kind                             : Complete Main
Default                                  : Yes
Forced                                   : No

Audio #2
ID                                       : 3
Format                                   : AC-3
Format/Info                              : Audio Coding 3
Commercial name                          : Dolby Digital
Codec ID                                 : A_AC3
Duration                                 : 1 h 39 min
Bit rate mode                            : Constant
Bit rate                                 : 192 kb/s
Channel(s)                               : 2 channels
Channel layout                           : L R
Sampling rate                            : 48.0 kHz
Frame rate                               : 31.250 FPS (1536 SPF)
Bit depth                                : 16 bits
Compression mode                         : Lossy
Stream size                              : 137 MiB (3%)
Title                                    : 2.0 | 192
Language                                 : Ukrainian
Service kind                             : Complete Main
Default                                  : No
Forced                                   : No

Audio #3
ID                                       : 4
Format                                   : AC-3
Format/Info                              : Audio Coding 3
Commercial name                          : Dolby Digital
Codec ID                                 : A_AC3
Duration                                 : 1 h 39 min
Bit rate mode                            : Constant
Bit rate                                 : 640 kb/s
Channel(s)                               : 6 channels
Channel layout                           : L R C LFE Ls Rs
Sampling rate                            : 48.0 kHz
Frame rate                               : 31.250 FPS (1536 SPF)
Bit depth                                : 16 bits
Compression mode                         : Lossy
Stream size                              : 456 MiB (11%)
Title                                    : 5.1 | 640
Language                                 : English
Service kind                             : Complete Main
Default                                  : No
Forced                                   : No

Text #1
ID                                       : 5
Format                                   : UTF-8
Codec ID                                 : S_TEXT/UTF8
Codec ID/Info                            : UTF-8 Plain Text
Duration                                 : 54 min 30 s
Bit rate                                 : 0 b/s
Count of elements                        : 2
Stream size                              : 39.0 Bytes (0%)
Title                                    : Forced
Language                                 : Ukrainian
Default                                  : Yes
Forced                                   : No

Text #2
ID                                       : 6
Format                                   : UTF-8
Codec ID                                 : S_TEXT/UTF8
Codec ID/Info                            : UTF-8 Plain Text
Duration                                 : 1 h 38 min
Bit rate                                 : 34 b/s
Count of elements                        : 764
Stream size                              : 24.7 KiB (0%)
Title                                    : Full
Language                                 : Ukrainian
Default                                  : No
Forced                                   : No

Text #3
ID                                       : 7
Format                                   : UTF-8
Codec ID                                 : S_TEXT/UTF8
Codec ID/Info                            : UTF-8 Plain Text
Duration                                 : 1 h 38 min
Bit rate                                 : 23 b/s
Count of elements                        : 805
Stream size                              : 17.0 KiB (0%)
Title                                    : Full
Language                                 : English
Default                                  : No
Forced                                   : No

Text #4
ID                                       : 8
Format                                   : UTF-8
Codec ID                                 : S_TEXT/UTF8
Codec ID/Info                            : UTF-8 Plain Text
Duration                                 : 1 h 39 min
Bit rate                                 : 32 b/s
Count of elements                        : 1196
Stream size                              : 23.4 KiB (0%)
Title                                    : SDH
Language                                 : English
Default                                  : No
Forced                                   : No

Menu
00:00:00.000                             : en:Chapter 01
00:03:35.882                             : en:Chapter 02
00:05:58.608                             : en:Chapter 03
00:10:31.339                             : en:Chapter 04
00:15:49.699                             : en:Chapter 05
00:19:03.851                             : en:Chapter 06
00:23:29.533                             : en:Chapter 07
00:27:28.355                             : en:Chapter 08
00:32:27.821                             : en:Chapter 09
00:34:32.529                             : en:Chapter 10
00:41:43.793                             : en:Chapter 11
00:46:14.522                             : en:Chapter 12
00:50:07.338                             : en:Chapter 13
00:55:15.562                             : en:Chapter 14
01:00:30.919                             : en:Chapter 15
01:04:04.632                             : en:Chapter 16
01:07:46.980                             : en:Chapter 17
01:12:38.563                             : en:Chapter 18
01:17:02.952                             : en:Chapter 19
01:19:25.219                             : en:Chapter 20
01:23:07.107                             : en:Chapter 21
01:26:21.218                             : en:Chapter 22
01:29:26.194                             : en:Chapter 23
01:32:22.620                             : en:Chapter 24
Скріншоти


Джерело:
Особиста оцінка: 9 - давно не бачив настільки якісне кіно


Золотий реліз (завантажене не впливає на рейтинг)
 Трекер:    Зареєстрований   

Завантажити / скачати фільм українською



відео для новачків



 Зареєстрований:   2020-05-23 20:22
 Розмір:   4.01 GB 
 Оцінка фільму:   9.3/10 (Голосів: 61)
   
piwer 
Частий відвідувач


З нами з: 22.10.16
Востаннє: 25.05.20
Повідомлень: 28

2020-03-28 21:37  
Дякую. Комп'ютеризований пес дещо псує загальну картину але на раз може бути.
Якщо комусь до вподоби творчість Лондона то рекомендую ознайомитися з однойменною стрічкою 97 року з Рутгером Гауером у головній ролі. На мою думку то куди більш вдала екранізація:
https://toloka.to/t16953


Cerguk 
Свій


З нами з: 30.09.09
Востаннє: 25.05.20
Повідомлень: 103

2020-03-28 22:38  
Цілком підтримую попереднього дописувача, фільм ніби й душевний, але ну от якось важко заставити себе переживати за комп"ютерного персонажа... Так, в фільмі багато сцен, які неможливо було б зняти з реальною собакою, але можливо було б краще "спроститити" сценарій але взяти таки живу собаку ? Типу менше екшена, але зате більше справжніх емоцій, як ото нещодавно був фільм з Дефо про доставку ліків.
zabpunk 
Новенький


З нами з: 15.09.14
Востаннє: 25.05.20
Повідомлень: 5

2020-04-08 17:21  
piwer
Дякую, перегляну!

webracer 
Новенький


З нами з: 11.09.10
Востаннє: 04.05.20
Повідомлень: 10

2020-04-18 01:06  
Така собі казочка. Не шедевр, але як фільм для сімейного перегляду підійде.
IRONHIDE 
VIP


З нами з: 06.08.10
Востаннє: 25.05.20
Повідомлень: 268

2020-04-21 09:32  
Гарне кіно!
Anonymous 







2020-04-27 22:09  
9 - давно не бачив настільки якісне кіно
Anonymous 







2020-05-03 00:07  
Торент файл оновлено. Заміна відео на + додано укр. субтитри 
waldi-hurtom 
VIP


З нами з: 07.10.12
Востаннє: 26.05.20
Повідомлень: 1134

2020-05-05 23:03  
Чергова лажа, типу Togo, розраховано на 5-річних дітей. Звісно, поставити трюки з дресерувальниками, купою собак - клопітно і дорого. Та ще й негуманно, бляха! Дебілізація рулить, спасибі неомарксистам! Негри на Юконі, тупа погонщиця собак. Соромно за Гарісона Форда. 1 з 10.
Anjey200677 
Новенький


З нами з: 03.12.11
Востаннє: 23.05.20
Повідомлень: 1

2020-05-12 05:46  
Цікавийм фільм. Дякую
Anonymous 







2020-05-23 20:23  
Додано 5.1 | 384
Ваш часовий пояс: GMT + 2 Години

Нова тема   Відповісти