Робінзон Крузо / Robinson Crusoe (1997) 1080p 2xUkr/Eng | Sub Eng/Ita/Por/Spa/Fre

Нові коментарі

Нова тема   Відповісти
Автор Повідомлення
Anonymous 







2020-03-28 13:36  
Робінзон Крузо / Robinson Crusoe (1997) 1080p 2xUkr/Eng | Sub Eng/Ita/Por/Spa/Fre

Робінзон Крузо / Robinson Crusoe (1997) 1080p 2xUkr/Eng | Sub Eng/Ita/Por/Spa/Fre


Жанр: драма, пригоди
Країна: США



Кінокомпанія: Miramax, RHI Entertainment
Режисер: Род Харді, Джордж Міллер
Актори: Пірс Броснан, Вільям Такаку, Поллі Вокер, Ієн Харт, Джеймс Фрейн

Сюжет:
За романом «Життя та пригоди Робінзона Крузо» Деніеля Дефо. Відкривається фільм сценою дуелі на шпагах, через яку Робінзону Крузо і довелося стати моряком і вирушити на зустріч зі своєю долею.


Тривалість: 01:30:43
Якість: 1080p
Відео:
кодек:
розмір кадру: 1920х1040
бітрейт: 12.1 Mб/с

Аудіо # 1:
мова: українська
переклад: багатоголосий закадровий
кодек: 2.0
бітрейт: 192 кб/с

Аудіо # 2:
мова: українська
переклад: багатоголосий закадровий
кодек: 2.0 (з 5.1)
бітрейт: 192 кб/с

Аудіо # 3:
мова: англійська
переклад: оригінал
кодек: E-AC-3 5.1
бітрейт: 640 кб/с

Субтитри:
мова: англійська
тип: програмні (м'які)
формат: *.srt

Субтитри:
мова: італійська
тип: програмні (м'які)
формат: *.srt

Субтитри:
мова: португальська
тип: програмні (м'які)
формат: *.srt

Субтитри:
мова: іспанська
тип: програмні (м'які)
формат: *.srt

Субтитри:
мова: французька
тип: програмні (м'які)
формат: *.srt
Info
General
Unique ID : 202095169653184793928052724099032117140 (0x980A1D27931172869D24A69912096F94)
Complete name : E:\Toloka\2020\Robinson Crusoe (1997) 1080p.
Format :
Format version : Version 4
File size : 8.50 GiB
Duration : 1 h 30 min
Overall bit rate : 13.4 Mb/s
Encoded date : UTC 2020-03-28 10:24:10
Writing application : v6.1.0 ('Old Devil') built on Mar 4 2013 09:10:42
Writing library : libebml v1.3.0 + v1.4.0

Video
ID : 1
Format : AVC
Format/Info : Advanced Video Codec
Format profile : [email protected]
Format settings : CABAC / 4 Ref Frames
Format settings, CABAC : Yes
Format settings, RefFrames : 4 frames
Codec ID : V_MPEG4/ISO/AVC
Duration : 1 h 30 min
Bit rate : 12.1 Mb/s
Width : 1 920 pixels
Height : 1 040 pixels
Display aspect ratio : 1.85:1
Frame rate mode : Constant
Frame rate : 23.976 (24000/1001) FPS
Color space : YUV
Chroma subsampling : 4:2:0
Bit depth : 8 bits
Scan type : Progressive
Bits/(Pixel*Frame) : 0.253
Stream size : 7.68 GiB (90%)
Title : English
Language : English
Default : Yes
Forced : No
Color range : Limited
Color primaries : BT.709
Transfer characteristics : BT.709
Matrix coefficients : BT.709

Audio #1
ID : 2
Format : AC-3
Format/Info : Audio Coding 3
Commercial name : Dolby Digital
Codec ID : A_AC3
Duration : 1 h 30 min
Bit rate mode : Constant
Bit rate : 192 kb/s
Channel(s) : 2 channels
Channel layout : L R
Sampling rate : 48.0 kHz
Frame rate : 31.250 FPS (1536 SPF)
Bit depth : 16 bits
Compression mode : Lossy
Stream size : 125 MiB (1%)
Title : UKR (2+2)
Language : Ukrainian
Service kind : Complete Main
Default : Yes
Forced : Yes

Audio #2
ID : 3
Format : AC-3
Format/Info : Audio Coding 3
Commercial name : Dolby Digital
Codec ID : A_AC3
Duration : 1 h 30 min
Bit rate mode : Constant
Bit rate : 192 kb/s
Channel(s) : 2 channels
Channel layout : L R
Sampling rate : 48.0 kHz
Frame rate : 31.250 FPS (1536 SPF)
Bit depth : 16 bits
Compression mode : Lossy
Stream size : 125 MiB (1%)
Title : UKR (ICTV)
Language : Ukrainian
Service kind : Complete Main
Default : No
Forced : No

Audio #3
ID : 4
Format : E-AC-3
Format/Info : Enhanced AC-3
Commercial name : Dolby Digital Plus
Codec ID : A_EAC3
Duration : 1 h 30 min
Bit rate mode : Constant
Bit rate : 640 kb/s
Channel(s) : 6 channels
Channel layout : L R C LFE Ls Rs
Sampling rate : 48.0 kHz
Frame rate : 31.250 FPS (1536 SPF)
Compression mode : Lossy
Stream size : 415 MiB (5%)
Title : English
Language : English
Service kind : Complete Main
Default : No
Forced : No

Text #1
ID : 5
Format : UTF-8
Codec ID : S_TEXT/UTF8
Codec ID/Info : UTF-8 Plain Text
Title : English
Language : English
Default : No
Forced : No

Text #2
ID : 6
Format : UTF-8
Codec ID : S_TEXT/UTF8
Codec ID/Info : UTF-8 Plain Text
Title : Italian
Language : Italian
Default : No
Forced : No

Text #3
ID : 7
Format : UTF-8
Codec ID : S_TEXT/UTF8
Codec ID/Info : UTF-8 Plain Text
Title : Portuguese
Language : Portuguese
Default : No
Forced : No

Text #4
ID : 8
Format : UTF-8
Codec ID : S_TEXT/UTF8
Codec ID/Info : UTF-8 Plain Text
Title : Spanish
Language : Spanish
Default : No
Forced : No

Text #5
ID : 9
Format : UTF-8
Codec ID : S_TEXT/UTF8
Codec ID/Info : UTF-8 Plain Text
Title : French
Language : French
Default : No
Forced : No
Скріншоти








За доріжки подяка п.: imonko, karvai0, Bohdan237, Arsenfpu
За постер подяка п. t0mas'у
Особиста подяка пану denixx за надану матеріальну допомогу на підтримку цього і майбутніх релізів.
Джерело:


Срібний реліз (на рейтинг впливає 50% завантаженого)
 Трекер:    Зареєстрований   

Завантажити / скачати фільм українською



відео для новачків



 Зареєстрований:   2020-03-28 13:36
 Розмір:   8.5 GB 
 Оцінка фільму:   9/10 (Голосів: 4)
   
Інші релізи
Ваш часовий пояс: GMT + 2 Години

Нова тема   Відповісти