Планета Ка-ПЕКС / K-PAX (2001) 1080p H.265 3xUkr/Eng | Sub Ukr/Eng

Нові коментарі

Нова тема   Відповісти
Автор Повідомлення
Anonymous 







2020-03-28 11:19  
Планета Ка-ПЕКС / K-PAX (2001) 1080p H.265 3xUkr/Eng | Sub Ukr/Eng

Планета Ка-ПЕКС / K-PAX (2001) 1080p H.265 3xUkr/Eng | Sub Ukr/Eng


Жанр: драма, фантастика
Країна: США, Німеччина
Кінокомпанія: IMF Internationale Medien und Film GmbH & Co. 2. Produktions KG, Intermedia Films, Lawrence Gordon Productions
Режисер: Ієн Софтлі / Iain Softley
Актори: Кевін Спейсі / Kevin Spacey, Джеф Бріджес / Jeff Bridges, Мері МакКормак / Mary McCormack, Алфрі Вудард / Alfre Woodard, Девід Патрік Келі / David Patrick Kelly, Сол Вільямс / Saul Williams, Пітер Ґереті / Peter Gerety, Трейсі Вілар / Tracy Vilar та інші.

Сюжет:
В Манхеттенський психіатричний інститут привозять дивну людину в чорних окулярах. Він називає себе Протом і стверджує, що його батьківщина - далека планета Ка-Пекс, звідки він миттєво перенісся на Землю на промені світла. Незважаючи на всі зусилля, досвідченому доктору Пауеллу не вдається розгадати загадку таємничого пацієнта, який охоче і дуже переконливо доводить всім своє позаземне походження і заздалегідь призначає дату свого повернення на Ка-ПЕКС.

Незабаром Марка Пауелла, що так і не зумів відкрити таємницю особистості свого найдивнішого підопічного, починає турбувати неймовірна, але нав'язлива думка: що може Прот зовсім не божевільний і в його словах є частка правди ...

Тривалість: 02:00:21
Якість: (Власний Rip)

Відео:
кодек: H.265 (HEVC)
розмір кадру: 1920 x 816
бітрейт: 7 412 кб/с
бітова глибина: 10 біт

Увага! Перед завантаженням переконайтесь, що ваш пристрій відтворення (та/або ПЗ) підтримує H.265 (HEVC)

Аудіо # 1:
мова: українська
переклад: багатоголосий закадровий | Студія "Омікрон"
кодек: 5.1
бітрейт: 768 кб/с

Аудіо # 2:
мова: українська
переклад: багатоголосий закадровий
кодек: AC-3 2.0
бітрейт: 192 кб/с

Аудіо # 3:
мова: українська
переклад: багатоголосий закадровий
кодек: AC-3 2.0
бітрейт: 192 кб/с

Аудіо # 4:
мова: англійська
переклад: оригінал
кодек: 5.1
бітрейт: 755 кб/с

Субтитри # 1: (Full)
мова: українська
тип: програмні (м'які)
формат: *.srt

Субтитри # 2: (Full)
мова: англійська
тип: програмні (м'які)
формат: *.srt


Info
Код:
General
Unique ID                                : 19430006690515201323839959071323723479 (0xE9E154AA949CA4DC4A94A08E9EA16D7)
Complete name                            : K-PAX (2001) 1080p H.265 [3xUKR_ENG] [Hurtom].
Format                                   :
Format version                           : Version 4
File size                                : 7.84 GiB
Duration                                 : 2 h 0 min
Overall bit rate                         : 9 321 kb/s
Movie name                               : Планета Ка-ПЕКС / K-PAX (2001)
Encoded date                             : UTC 2020-03-27 21:41:50
Writing application                      : v44.0.0 ('Domino') 64-bit
Writing library                          : libebml v1.3.10 + v1.5.2
Cover                                    : Yes
Attachments                              : Cover

Video
ID                                       : 1
Format                                   : HEVC
Format/Info                              : High Efficiency Video Coding
Format profile                           : Main [email protected]@High
Codec ID                                 : V_MPEGH/ISO/HEVC
Duration                                 : 2 h 0 min
Bit rate                                 : 7 412 kb/s
Width                                    : 1 920 pixels
Height                                   : 816 pixels
Display aspect ratio                     : 2.35:1
Frame rate mode                          : Constant
Frame rate                               : 23.976 (24000/1001) FPS
Color space                              : YUV
Chroma subsampling                       : 4:2:0
Bit depth                                : 10 bits
Bits/(Pixel*Frame)                       : 0.197
Stream size                              : 6.23 GiB (80%)
Title                                    : Планета Ка-ПЕКС / K-PAX (2001)
Writing library                          : x265 3.2+5-354901970679:[Windows][clang 8.0.1][64 bit] 10bit
Encoding settings                        : cpuid=1111039 / frame-threads=9 / numa-pools=8 / wpp / no-pmode / no-pme / no-psnr / no-ssim / log-level=3 / input-csp=1 / input-res=1920x816 / interlace=0 / total-frames=0 / level-idc=51 / high-tier=1 / uhd-bd=0 / ref=5 / allow-non-conformance / no-repeat-headers / annexb / no-aud / no-hrd / info / hash=0 / no-temporal-layers / open-gop / min-keyint=24 / keyint=240 / gop-lookahead=0 / bframes=10 / b-adapt=2 / b-pyramid / bframe-bias=0 / rc-lookahead=40 / lookahead-slices=5 / scenecut=40 / radl=0 / no-splice / no-intra-refresh / ctu=64 / min-cu-size=8 / rect / amp / max-tu-size=32 / tu-inter-depth=4 / tu-intra-depth=4 / limit-tu=0 / rdoq-level=2 / dynamic-rd=0.00 / no-ssim-rd / signhide / no-tskip / nr-intra=0 / nr-inter=0 / no-constrained-intra / no-strong-intra-smoothing / max-merge=3 / limit-refs=1 / no-limit-modes / me=3 / subme=7 / merange=57 / temporal-mvp / no-frame-dup / no-hme / weightp / weightb / no-analyze-src-pics / deblock=-3:-3 / no-sao / no-sao-non-deblock / rd=6 / selective-sao=0 / early-skip / rskip / no-fast-intra / no-tskip-fast / no-cu-lossless / b-intra / no-splitrd-skip / rdpenalty=0 / psy-rd=2.00 / psy-rdoq=1.00 / no-rd-refine / no-lossless / cbqpoffs=0 / crqpoffs=0 / rc=crf / crf=20.0 / qcomp=0.65 / qpstep=4 / stats-write=0 / stats-read=0 / vbv-maxrate=50000 / vbv-bufsize=50000 / vbv-init=0.9 / crf-max=30.0 / crf-min=0.0 / ipratio=1.40 / pbratio=1.30 / aq-mode=1 / aq-strength=1.00 / no-cutree / zone-count=0 / no-strict-cbr / qg-size=32 / no-rc-grain / qpmax=69 / qpmin=0 / no-const-vbv / sar=1 / overscan=0 / videoformat=5 / range=0 / colorprim=2 / transfer=2 / colormatrix=2 / chromaloc=0 / display-window=0 / cll=0,0 / min-luma=0 / max-luma=1023 / log2-max-poc-lsb=8 / vui-timing-info / vui-hrd-info / slices=1 / no-opt-qp-pps / no-opt-ref-list-length-pps / no-multi-pass-opt-rps / scenecut-bias=0.05 / no-opt-cu-delta-qp / no-aq-motion / no-hdr / no-hdr-opt / no-dhdr10-opt / no-idr-recovery-sei / analysis-reuse-level=5 / scale-factor=0 / refine-intra=0 / refine-inter=0 / refine-mv=1 / refine-ctu-distortion=0 / no-limit-sao / ctu-info=0 / no-lowpass-dct / refine-analysis-type=0 / copy-pic=1 / max-ausize-factor=1.0 / no-dynamic-refine / no-single-sei / no-hevc-aq / no-svt / no-field / qp-adaptation-range=1.00
Default                                  : Yes
Forced                                   : No
Color range                              : Limited

Audio #1
ID                                       : 2
Format                                   :
Format/Info                              : Digital Theater Systems
Codec ID                                 : A_DTS
Duration                                 : 2 h 0 min
Bit rate mode                            : Constant
Bit rate                                 : 768 kb/s
Channel(s)                               : 6 channels
Channel layout                           : C L R Ls Rs LFE
Sampling rate                            : 48.0 kHz
Frame rate                               : 93.750 FPS (512 SPF)
Bit depth                                : 16 bits
Compression mode                         : Lossy
Stream size                              : 660 MiB (8%)
Title                                    : / 5.1 Ch / 768 kbps / БЗ / Студія "Омікрон"
Language                                 : Ukrainian
Default                                  : Yes
Forced                                   : Yes

Audio #2
ID                                       : 3
Format                                   : AC-3
Format/Info                              : Audio Coding 3
Commercial name                          : Dolby Digital
Codec ID                                 : A_AC3
Duration                                 : 2 h 0 min
Bit rate mode                            : Constant
Bit rate                                 : 192 kb/s
Channel(s)                               : 2 channels
Channel layout                           : L R
Sampling rate                            : 48.0 kHz
Frame rate                               : 31.250 FPS (1536 SPF)
Compression mode                         : Lossy
Stream size                              : 165 MiB (2%)
Title                                    : / 2.0 Ch / 192 kbps / БЗ / Cine+
Language                                 : Ukrainian
Service kind                             : Complete Main
Default                                  : No
Forced                                   : No

Audio #3
ID                                       : 4
Format                                   : AC-3
Format/Info                              : Audio Coding 3
Commercial name                          : Dolby Digital
Codec ID                                 : A_AC3
Duration                                 : 2 h 0 min
Bit rate mode                            : Constant
Bit rate                                 : 192 kb/s
Channel(s)                               : 2 channels
Channel layout                           : L R
Sampling rate                            : 48.0 kHz
Frame rate                               : 31.250 FPS (1536 SPF)
Compression mode                         : Lossy
Stream size                              : 165 MiB (2%)
Title                                    : / 2.0 Ch / 192 kbps / БЗ / K1
Language                                 : Ukrainian
Service kind                             : Complete Main
Default                                  : No
Forced                                   : No

Audio #4
ID                                       : 5
Format                                   :
Format/Info                              : Digital Theater Systems
Codec ID                                 : A_DTS
Duration                                 : 2 h 0 min
Bit rate mode                            : Constant
Bit rate                                 : 755 kb/s
Channel(s)                               : 6 channels
Channel layout                           : C L R Ls Rs LFE
Sampling rate                            : 48.0 kHz
Frame rate                               : 93.750 FPS (512 SPF)
Bit depth                                : 16 bits
Compression mode                         : Lossy
Stream size                              : 649 MiB (8%)
Title                                    : / 5.1 Ch / 768 kbps / Original
Language                                 : English
Default                                  : No
Forced                                   : No

Text #1
ID                                       : 6
Format                                   : UTF-8
Codec ID                                 : S_TEXT/UTF8
Codec ID/Info                            : UTF-8 Plain Text
Duration                                 : 1 h 57 min
Bit rate                                 : 82 b/s
Count of elements                        : 1414
Stream size                              : 71.0 KiB (0%)
Title                                    : Full
Language                                 : Ukrainian
Default                                  : Yes
Forced                                   : No

Text #2
ID                                       : 7
Format                                   : UTF-8
Codec ID                                 : S_TEXT/UTF8
Codec ID/Info                            : UTF-8 Plain Text
Duration                                 : 1 h 57 min
Bit rate                                 : 61 b/s
Count of elements                        : 1533
Stream size                              : 52.8 KiB (0%)
Title                                    : Full
Language                                 : English
Default                                  : No
Forced                                   : No

Menu
00:00:00.000                             : :Main Titles
00:02:09.400                             : :I Didn't Arrive By Train
00:09:20.967                             : :Why Did You Come to This Planet?
00:18:14.067                             : :A Painful Procedure
00:23:35.067                             : :A Lot Like Home
00:36:21.801                             : :Twin Solar System
00:43:24.735                             : :Blue Bird
00:47:15.868                             : :Planning to Return
00:52:23.901                             : :The Fourth of July
00:59:39.168                             : :The Sprinklers
01:06:58.902                             : :Hypnosis
01:14:32.102                             : :Sarah
01:22:38.970                             : :27Th July 1996
01:27:34.003                             : :Robert Porter
01:38:17.837                             : :Connected
01:47:13.104                             : :A Beam of Light
01:51:35.038                             : :This Time Is All You Have
01:55:14.772                             : :End Titles
Світлини




Джерело: &
Особиста оцінка: 10 - без зайвих вагань рекомендую всім!


Срібний реліз (на рейтинг впливає 50% завантаженого)
 Трекер:    Зареєстрований   

Завантажити / скачати фільм українською



відео для новачків



 Зареєстрований:   2020-03-28 11:19
 Розмір:   7.84 GB 
 Оцінка фільму:   10/10 (Голосів: 9)
   
Інші релізи
Jatx_11 
Відео Гуртом - фільмокрай
Відео Гуртом - фільмокрай


З нами з: 20.04.11
Востаннє: 23.09.20
Повідомлень: 934

2020-03-31 18:19  
Це перекодований з 264 в 265?
Anonymous 







2020-03-31 19:42  
Jatx_11
Ні, ось джерело - http://www.kinocollection.ru/product_10093.html

Petrovcheg 
Новенький


З нами з: 10.01.17
Востаннє: 20.09.20
Повідомлень: 14

2020-03-31 21:51  
В часи, коли трава була зеленіша, DVD-диски в DivX/ ріпали. А тут вічний MPEG-2 і до H.265 дожив :)
TopLoader 
Новенький


З нами з: 03.08.19
Востаннє: 17.07.20
Повідомлень: 3

2020-04-19 19:08  
Фільм цікавий, але стосовно сорца мушу сказати, що його станом на зараз не існує ні у блуреї ні в хд-двд і на амазоні ви його теж не знайдете в HD.
Лінк, який тут неведений - це ніщо інше, як аналог ДВД5в1 дисків, які на початку 2000х продавалися по кіосках, де в дуже поганій якості пхали по 5 фільмів на один диск.
Максимум на чому виходив цей фільм - D-VHS (https://www.hometheaterforum.com/community/threads/new-d-theater-releases.122160/?amp=1051119776) касетах, що є доволі "вінрарним" варіантом HD картинки того часу. Деталі тут: https://en.wikipedia.org/wiki/D-VHS#D-Theater
Найкраще, що зараз можна знайти на торентах - це DTheater 1080i десь на 20+ бітрейту

Anonymous 







2020-04-19 22:28  
TopLoader
Не правда, на зачинених трекерах реально є HD-DVDRemux. І бітрейт відрізняється від того, який у DTheater.
Та, в будь-якому разі, Вам нічого не заважає самому зробити ріп з того джерела, яке Вам більше подобається.

TopLoader 
Новенький


З нами з: 03.08.19
Востаннє: 17.07.20
Повідомлень: 3

2020-04-20 10:21  
Та правда, правда...
HD-DVD давно-давним вже схлопнувся, тому що індустрія прийняла рішення випускати релізи фільмів лише на Blu-ray. І в інтернеті давно вже є авторитетні закордонні ресурси, де можна подивитися список релізів, коли і на яких носіях вони виходять.
Крім того, в мене є акаунт на chdbit і я в курсі, що по світу звідти розтікається. Толоку люблю за українські звукові доріжки, а не за те, що тут із самопальних 8 бітних сорців ліплять єретичні апскейли 10бітні, які потім в людей не запускаються на купі старих телевізорів 8 бітних, що ще більш іронічно, оскільки 10бітними сорцами є лише 4К блуреї, а ніяк не FullHD.
Це то саме, що відкрити JPEG зображення і зберегти його в BMP, наївно думаючи, що від того покращиться його якість.

Anonymous 







2020-04-20 10:58  
TopLoader
Нехай буде так. Але в кожного залишиться своя правда.

Ваш часовий пояс: GMT + 2 Години

Нова тема   Відповісти