Крикуни / Screamers (1995) 1080p H.265 2хUkr/Eng | Sub Eng

Нові коментарі

Нова тема   Відповісти
Автор Повідомлення
Anonymous 







2020-03-27 02:28  
Крикуни / Screamers (1995) 1080p H.265 2хUkr/Eng | Sub Eng

Крикуни / Screamers (1995) 1080p H.265 2хUkr/Eng | Sub Eng


Жанр: екшн, фантастика, трилер
Країна: Канада, США, Японія
Кінокомпанія: Triumph Films, Fuji Eight Company Ltd., Fries Film Group, Allegro Films, Super Écran, The Movie Network (TMN)
Режисер: Крістіан Дугай [Christian Duguay]
Актори: Пітер Веллер [Peter Weller], Рой Дюпуі [Roy Dupuis], Дженіфер Рубін [Jennifer Rubin], Енді Лоуер [Andy Lauer], Рон Вайт [Ron White], Чарльз Повел [Charles Powel]l, Ліліана Коморовська [Liliana Komorowska].

Сюжет:
2078 рік. Планета Сиріус-6Б. 50 років "НЕБ" контролює видобуток корисних копалин на планетах усіх відомих сонячних систем. 20 років тому на Сиріусі-6Б "НЕБ" відкрив засіб проти світової енергетичної кризи - Бериній. Його видобування призвело до небезпечного забруднення. "Альянс", профспілка шахтарів та науковці висунули вимогу припинити видобуток. У відповідь "НЕБ" оголосив війну і бомбардував планету. Одного дня офіцер "Альянсу" - полковник Хендріксон отримує від керівника бази "НЕБ" пропозицію домовитися про перемир'я, а можливо і закінчити війну остаточно. Хендріксон бере з собою новачка та йде зустріч... Тепер, на десятому році війни, ті хто вижив на Сиріусі-6Б зіткнулися з незнаною досі небезпекою

Тривалість: 01:48:23
Якість:

Відео:
кодек: H.265 (HEVC)
розмір кадру: 1920 x 1080
бітрейт: 12 082 кб/с
бітова глибина: 10 біт

Увага! Перед завантаженням переконайтесь, що ваш пристрій відтворення (та/або ПЗ) підтримує H.265 (HEVC)

Аудіо # 1:
мова: українська
переклад: багатоголосий закадровий ,
кодек: AC-3 2.0
бітрейт: 192 кб/с

Аудіо # 2:
мова: українська
переклад: багатоголосий закадровий ,
кодек: AC-3 2.0
бітрейт: 192 кб/с

Аудіо # 3:
мова: англійська
переклад: оригінал
кодек: 2.0
бітрейт: 1510 кб/с

Субтитри # 1-2: (Full, SDH)
мова: англійська
тип: програмні (м'які)
формат: *.srt


Info
Код:
General
Unique ID                                : 186467035736918969493953026275908513397 (0x8C483EA9AF53EF75FE0725695A57EE75)
Complete name                            : Screamers (1995) 1080p H.265 [2xUKR_ENG] [Hurtom].
Format                                   :
Format version                           : Version 4
File size                                : 10.6 GiB
Duration                                 : 1 h 48 min
Overall bit rate                         : 14.0 Mb/s
Movie name                               : Крикуни / Screamers (1995)
Encoded date                             : UTC 2020-03-26 23:00:14
Writing application                      : v20.0.0 ('I Am The Sun') 64-bit
Writing library                          : libebml v1.3.5 + v1.4.8
Cover                                    : Yes
Attachments                              : Cover.jpg

Video
ID                                       : 1
Format                                   : HEVC
Format/Info                              : High Efficiency Video Coding
Format profile                           : Main [email protected]@High
Codec ID                                 : V_MPEGH/ISO/HEVC
Duration                                 : 1 h 48 min
Bit rate                                 : 12.1 Mb/s
Width                                    : 1 920 pixels
Height                                   : 1 080 pixels
Display aspect ratio                     : 16:9
Frame rate mode                          : Constant
Frame rate                               : 23.976 (24000/1001) FPS
Color space                              : YUV
Chroma subsampling                       : 4:2:0
Bit depth                                : 10 bits
Bits/(Pixel*Frame)                       : 0.243
Stream size                              : 9.15 GiB (86%)
Title                                    : Крикуни / Screamers (1995)
Writing library                          : x265 2.9+2-7e978ed93d60:[Windows][MSVC 1915][64 bit] 10bit
Encoding settings                        : cpuid=1176575 / frame-threads=4 / numa-pools=16 / wpp / no-pmode / no-pme / no-psnr / no-ssim / log-level=2 / input-csp=1 / input-res=1920x1080 / interlace=0 / total-frames=155928 / level-idc=41 / high-tier=1 / uhd-bd=0 / ref=4 / no-allow-non-conformance / no-repeat-headers / annexb / no-aud / no-hrd / info / hash=0 / no-temporal-layers / open-gop / min-keyint=23 / keyint=240 / gop-lookahead=0 / bframes=10 / b-adapt=2 / b-pyramid / bframe-bias=0 / rc-lookahead=60 / lookahead-slices=4 / scenecut=40 / radl=0 / no-intra-refresh / ctu=32 / min-cu-size=8 / rect / amp / max-tu-size=32 / tu-inter-depth=4 / tu-intra-depth=4 / limit-tu=1 / rdoq-level=2 / dynamic-rd=0.00 / no-ssim-rd / signhide / no-tskip / nr-intra=0 / nr-inter=0 / no-constrained-intra / no-strong-intra-smoothing / max-merge=5 / limit-refs=2 / limit-modes / me=3 / subme=7 / merange=57 / temporal-mvp / weightp / weightb / no-analyze-src-pics / deblock=-3:-2 / no-sao / no-sao-non-deblock / rd=6 / no-early-skip / rskip / no-fast-intra / no-tskip-fast / no-cu-lossless / b-intra / no-splitrd-skip / rdpenalty=0 / psy-rd=1.00 / psy-rdoq=1.00 / no-rd-refine / no-lossless / cbqpoffs=0 / crqpoffs=0 / rc=crf / crf=20.0 / qcomp=0.75 / qpstep=4 / stats-write=0 / stats-read=0 / vbv-maxrate=50000 / vbv-bufsize=50000 / vbv-init=0.9 / crf-max=0.0 / crf-min=0.0 / ipratio=1.40 / pbratio=1.30 / aq-mode=2 / aq-strength=0.70 / no-cutree / zone-count=0 / no-strict-cbr / qg-size=32 / no-rc-grain / qpmax=69 / qpmin=0 / no-const-vbv / sar=1 / overscan=0 / videoformat=5 / range=0 / colorprim=1 / transfer=1 / colormatrix=1 / chromaloc=0 / display-window=0 / max-cll=0,0 / min-luma=0 / max-luma=1023 / log2-max-poc-lsb=8 / vui-timing-info / vui-hrd-info / slices=1 / no-opt-qp-pps / no-opt-ref-list-length-pps / no-multi-pass-opt-rps / scenecut-bias=0.05 / no-opt-cu-delta-qp / aq-motion / no-hdr / no-hdr-opt / no-dhdr10-opt / no-idr-recovery-sei / analysis-reuse-level=5 / scale-factor=0 / refine-intra=0 / refine-inter=0 / refine-mv=0 / no-limit-sao / ctu-info=0 / no-lowpass-dct / refine-mv-type=0 / copy-pic=1 / max-ausize-factor=1.0 / no-dynamic-refine / no-single-sei
Language                                 : Russian
Default                                  : Yes
Forced                                   : No
Color range                              : Limited
Color primaries                          : BT.709
Transfer characteristics                 : BT.709
Matrix coefficients                      : BT.709

Audio #1
ID                                       : 2
Format                                   : AC-3
Format/Info                              : Audio Coding 3
Commercial name                          : Dolby Digital
Codec ID                                 : A_AC3
Duration                                 : 1 h 48 min
Bit rate mode                            : Constant
Bit rate                                 : 192 kb/s
Channel(s)                               : 2 channels
Channel layout                           : L R
Sampling rate                            : 48.0 kHz
Frame rate                               : 31.250 FPS (1536 SPF)
Compression mode                         : Lossy
Delay relative to video                  : 1 s 0 ms
Stream size                              : 149 MiB (1%)
Title                                    : / 2.0 Ch / 192 kbps / БЗ / 1+1, ICTV
Language                                 : Ukrainian
Service kind                             : Complete Main
Default                                  : Yes
Forced                                   : Yes

Audio #2
ID                                       : 3
Format                                   : AC-3
Format/Info                              : Audio Coding 3
Commercial name                          : Dolby Digital
Codec ID                                 : A_AC3
Duration                                 : 1 h 48 min
Bit rate mode                            : Constant
Bit rate                                 : 192 kb/s
Channel(s)                               : 2 channels
Channel layout                           : L R
Sampling rate                            : 48.0 kHz
Frame rate                               : 31.250 FPS (1536 SPF)
Compression mode                         : Lossy
Delay relative to video                  : 1 s 0 ms
Stream size                              : 149 MiB (1%)
Title                                    : / 2.0 Ch / 192 kbps / БЗ / NTN, Inter
Language                                 : Ukrainian
Service kind                             : Complete Main
Default                                  : No
Forced                                   : No

Audio #3
ID                                       : 4
Format                                   :
Format/Info                              : Digital Theater Systems
Codec ID                                 : A_DTS
Duration                                 : 1 h 48 min
Bit rate mode                            : Constant
Bit rate                                 : 1 509 kb/s
Channel(s)                               : 2 channels
Channel layout                           : L R
Sampling rate                            : 48.0 kHz
Frame rate                               : 93.750 FPS (512 SPF)
Bit depth                                : 24 bits
Compression mode                         : Lossy
Stream size                              : 1.14 GiB (11%)
Title                                    : / 2.0 Ch / 1509 kbps / Original
Language                                 : English
Default                                  : No
Forced                                   : No

Text #1
ID                                       : 5
Format                                   : UTF-8
Codec ID                                 : S_TEXT/UTF8
Codec ID/Info                            : UTF-8 Plain Text
Duration                                 : 1 h 39 min
Bit rate                                 : 47 b/s
Count of elements                        : 1100
Stream size                              : 34.7 KiB (0%)
Title                                    : Full
Language                                 : English
Default                                  : No
Forced                                   : No

Text #2
ID                                       : 6
Format                                   : UTF-8
Codec ID                                 : S_TEXT/UTF8
Codec ID/Info                            : UTF-8 Plain Text
Duration                                 : 1 h 42 min
Bit rate                                 : 45 b/s
Count of elements                        : 1073
Stream size                              : 34.5 KiB (0%)
Title                                    : SDH
Language                                 : English
Default                                  : No
Forced                                   : No

Menu
00:00:00.000                             : en:Start
00:01:58.992                             : en:Sirius 6b
00:05:54.992                             : en:Calvary Attack
00:08:55.992                             : en:Retrieval Expedition
00:11:15.162                             : en:Col. Hendricksson
00:18:52.992                             : en:Crash Site
00:25:56.992                             : en:"We Are Betrayed"
00:30:01.992                             : en:Peace Mission
00:32:11.092                             : en:History Lesson
00:35:58.992                             : en:David
00:39:34.892                             : en:Campsite
00:41:55.992                             : en:An Upgrade
00:45:19.192                             : en:Not A Real Boy
00:48:51.992                             : en:Down To The Bunker
00:52:00.262                             : en:Jessica
00:59:19.992                             : en:Into The Tunnels
01:02:11.992                             : en:The Command Center
01:04:28.602                             : en:Uplink Interrupted
01:08:00.992                             : en:Reading The Tags
01:10:07.992                             : en:"Can I Come With You?"
01:11:23.492                             : en:Wasted For No Reason
01:16:34.992                             : en:Becker & The Rookie
01:18:57.992                             : en:Type 3
01:23:12.252                             : en:Type 2
01:26:33.992                             : en:"I Had To Know"
01:30:57.992                             : en:New Alamo Site
01:32:20.062                             : en:Preparing To Launch
01:39:19.192                             : en:Killing Each Other
Світлини




Джерело: &
Особиста оцінка: 0 - не дивився


Срібний реліз (на рейтинг впливає 50% завантаженого)
 Трекер:    Зареєстрований   

Завантажити / скачати фільм українською



відео для новачків



 Зареєстрований:   2020-03-27 02:28
 Розмір:   10.58 GB 
 Оцінка фільму:   8.9/10 (Голосів: 8)
   
Інші релізи
   Крикуни / Screamers (1995) Remux 1080p 2хUkr/Eng | Sub Eng MakRA  3 / 0   26.93 GB   2019-05-25 23:54 
   Крикуни / Screamers (1995) AVC 2xUkr/Eng | Sub Eng staf777  3 / 0   2.48 GB   2018-08-23 09:05 
   Крикуни / Screamers (1995) 1080p 2xUkr/Eng | Sub Eng staf777  1 / 0   11.7 GB   2018-05-09 18:57 
   Крикуни / Screamers (1995) 2xUkr/Eng Arsenfpu  5 / 0   2.2 GB   2018-04-16 23:29 
   Крикуни / Screamers (1995) 720p Ukr/Eng | Sub Eng 11FrYkT  5 / 0   3.45 GB   2014-02-27 11:53 
Ваш часовий пояс: GMT + 2 Години

Нова тема   Відповісти