До дива / To the Wonder (2012) Remux 1080p Ukr/Eng | Sub Ukr/Eng

Нові коментарі

Нова тема   Відповісти
Останній раз роздавалося Ancik (2020-04-17)
Автор Повідомлення
Anonymous 







2020-03-27 00:11  
До дива / To the Wonder (2012) Remux 1080p Ukr/Eng | Sub Ukr/Eng

До дива / To the Wonder (2012) Remux 1080p Ukr/Eng | Sub Ukr/Eng


Жанр: драма, романтичний
Країна: США
Кінокомпанія: Brothers K Productions, Redbud Pictures
Режисер: Терренс Малік / Terrence Malick
Актори: Бен Аффлек / Ben Affleck, Ольга Куриленко, Рейчел МакАдамс / Rachel McAdams, Хав'єр Бардем / Javier Bardem, Татьяна Чілін / Tatiana Chiline, Роміна Монделло / Romina Mondello, Тоні О’Ґанс / Tony O'Gans, Чарльз Бейкер / Charles Baker, Маршалл Белл / Marshall Bell, Кейсі Вільямс / Casey Williams

Сюжет:
Письменник Ніл переживає не найкращі часи у житті. Його твори не мають успіху, а шлюб без кохання з Мариною приносить тільки страждання і для нього, і для неї. Обидвоє шукають стосунки на стороні – Ніл заводить роман з Джейн, а Марина зраджує чоловікові з Чарлі. І Ніл, і Марина просять настанов у батька Куінтана, священика, який сам страждає від неможливості жити власним життям... Підпільна імперія

Тривалість: 01:52:34
Якість: Remux

Відео:
кодек:
розмір кадру: 1920 x 1080
бітрейт: 21 999 кб/с

Аудіо # 1:
мова: українська
переклад: багатоголосий закадровий
кодек: AC-3 2.0
бітрейт: 192 кб/с

Аудіо # 2:
мова: англійська
переклад: оригінал
кодек: -HD MA 7.1
бітрейт: 4092 кб/с

Субтитри # 1: (Full)
мова: українська
тип: програмні (м'які)
формат: *.srt

Субтитри # 2-4: (Full, SDH, SDH-Colored)
мова: англійська
тип: програмні (м'які)
формат: *.srt


Info
Код:
General
Unique ID                                : 91249547768996548506798725223835166043 (0x44A6060DAA395329BAD8353485FEE55B)
Complete name                            : To the Wonder (2012) Remux 1080p [UKR_ENG] [Hurtom].
Format                                   :
Format version                           : Version 4
File size                                : 20.7 GiB
Duration                                 : 1 h 52 min
Overall bit rate mode                    : Variable
Overall bit rate                         : 26.3 Mb/s
Movie name                               : До дива / To the Wonder (2012)
Encoded date                             : UTC 2020-03-26 20:44:53
Writing application                      : v20.0.0 ('I Am The Sun') 64-bit
Writing library                          : libebml v1.3.5 + v1.4.8
Cover                                    : Yes
Attachments                              : Cover.jpg

Video
ID                                       : 1
Format                                   : AVC
Format/Info                              : Advanced Video Codec
Format profile                           : [email protected]
Format settings                          : CABAC / 4 Ref Frames
Format settings, CABAC                   : Yes
Format settings, Reference frames        : 4 frames
Format settings, GOP                     : M=3, N=24
Codec ID                                 : V_MPEG4/ISO/AVC
Duration                                 : 1 h 52 min
Bit rate mode                            : Variable
Bit rate                                 : 22.0 Mb/s
Maximum bit rate                         : 35.0 Mb/s
Width                                    : 1 920 pixels
Height                                   : 1 080 pixels
Display aspect ratio                     : 16:9
Frame rate mode                          : Constant
Frame rate                               : 23.976 (24000/1001) FPS
Standard                                 : NTSC
Color space                              : YUV
Chroma subsampling                       : 4:2:0
Bit depth                                : 8 bits
Scan type                                : Progressive
Bits/(Pixel*Frame)                       : 0.442
Stream size                              : 17.3 GiB (84%)
Title                                    : До дива / To the Wonder (2012)
Language                                 : English
Default                                  : Yes
Forced                                   : No
Color range                              : Limited
Color primaries                          : BT.709
Transfer characteristics                 : BT.709
Matrix coefficients                      : BT.709

Audio #1
ID                                       : 2
Format                                   : AC-3
Format/Info                              : Audio Coding 3
Commercial name                          : Dolby Digital
Codec ID                                 : A_AC3
Duration                                 : 1 h 52 min
Bit rate mode                            : Constant
Bit rate                                 : 192 kb/s
Channel(s)                               : 2 channels
Channel layout                           : L R
Sampling rate                            : 48.0 kHz
Frame rate                               : 31.250 FPS (1536 SPF)
Compression mode                         : Lossy
Stream size                              : 155 MiB (1%)
Title                                    : / 2.0 Ch / 192 kbps / БЗ / 1+1
Language                                 : Ukrainian
Service kind                             : Complete Main
Default                                  : Yes
Forced                                   : Yes

Audio #2
ID                                       : 3
Format                                   : XLL
Format/Info                              : Digital Theater Systems
Commercial name                          : -HD Master Audio
Codec ID                                 : A_DTS
Duration                                 : 1 h 52 min
Bit rate mode                            : Variable
Bit rate                                 : 4 088 kb/s
Channel(s)                               : 8 channels
Channel layout                           : C L R LFE Lb Rb Lss Rss
Sampling rate                            : 48.0 kHz
Frame rate                               : 93.750 FPS (512 SPF)
Bit depth                                : 24 bits
Compression mode                         : Lossless
Stream size                              : 3.22 GiB (16%)
Title                                    : -HD MA / 5.1 Ch / 4088 kbps / Original
Language                                 : English
Default                                  : No
Forced                                   : No

Text #1
ID                                       : 4
Format                                   : UTF-8
Codec ID                                 : S_TEXT/UTF8
Codec ID/Info                            : UTF-8 Plain Text
Duration                                 : 1 h 45 min
Bit rate                                 : 34 b/s
Count of elements                        : 556
Stream size                              : 26.7 KiB (0%)
Title                                    : Full
Language                                 : Ukrainian
Default                                  : Yes
Forced                                   : No

Text #2
ID                                       : 5
Format                                   : UTF-8
Codec ID                                 : S_TEXT/UTF8
Codec ID/Info                            : UTF-8 Plain Text
Duration                                 : 1 h 28 min
Bit rate                                 : 14 b/s
Count of elements                        : 284
Stream size                              : 9.10 KiB (0%)
Title                                    : Full
Language                                 : English
Default                                  : No
Forced                                   : No

Text #3
ID                                       : 6
Format                                   : UTF-8
Codec ID                                 : S_TEXT/UTF8
Codec ID/Info                            : UTF-8 Plain Text
Duration                                 : 1 h 45 min
Bit rate                                 : 36 b/s
Count of elements                        : 926
Stream size                              : 28.2 KiB (0%)
Title                                    : SDH
Language                                 : English
Default                                  : No
Forced                                   : No

Text #4
ID                                       : 7
Format                                   : UTF-8
Codec ID                                 : S_TEXT/UTF8
Codec ID/Info                            : UTF-8 Plain Text
Duration                                 : 1 h 44 min
Bit rate                                 : 17 b/s
Count of elements                        : 336
Stream size                              : 13.5 KiB (0%)
Title                                    : SDH-Colored
Language                                 : English
Default                                  : No
Forced                                   : No

Menu
00:00:00.000                             : en:Love Makes Us One
00:10:06.522                             : en:America
00:18:51.046                             : en:There's Something Missing
00:31:12.370                             : en:Face the Facts
00:41:33.866                             : en:Read Romans
00:49:52.114                             : en:Paris Is Dreadful
00:57:33.783                             : en:Invisible Something
01:09:01.887                             : en:Leave This Place
01:17:32.064                             : en:Two Women Inside Me
01:27:44.425                             : en:Intersection
01:35:02.530                             : en:Where Are You Leading Me?
01:44:31.223                             : en:To the Wonder
Світлини




Джерело: &
Особиста оцінка: 0 - не дивився


Золотий реліз (завантажене не впливає на рейтинг)
 Трекер:    Зареєстрований   

Завантажити / скачати фільм українською



відео для новачків



 Зареєстрований:   2020-03-27 00:11
 Розмір:   20.67 GB 
 Оцінка фільму:   6.7/10 (Голосів: 3)
   
Інші релізи
   До дива / To the Wonder (2012) 1080p H.265 Ukr/Eng | Sub Ukr/Eng -Star-Lord-  0 / 0   9.03 GB   2020-03-31 20:11 
   До дива / To the Wonder (2012) Ukr/Eng | Sub Ukr/Eng karvai0  7 / 0   2.18 GB   2014-05-26 01:01 
   До Дива / To the Wonder (2012)  720p Eng | Sub Ukr/Eng antusyrzhuk  0 / 0   3.45 GB   2013-04-16 12:10 
Ваш часовий пояс: GMT + 2 Години

Нова тема   Відповісти