Страх над містом / Peur sur la ville (1975) 720p Ukr/Fre | Sub Eng

Нові коментарі

Нова тема   Відповісти
Автор Повідомлення
MakRA 
VIP


З нами з: 11.11.18
Востаннє: 03.04.20
Повідомлень: 939

2020-03-26 23:54  
Страх над містом / Peur sur la ville (1975) 720p Ukr/Fre | Sub Eng


Український постер:

Альтернативні обкладинки та постери:




Жанр: екшн, трилер, драма
Країна: Франція , Італія



Кінокомпанія: Cerito Films, Mondial Televisione Film
Режисер: Анрі Верней [Henri Verneuil]
Актори: Жан-Поль Бельмондо [Jean-Paul Belmondo], Шарль Денер [Charles Denner], Леа Массарі [Lea Massari], Розі Варт [Rosy Varte], Ролан Дюбілляр [Roland Dubillard], Джованні Чанфрілья [Giovanni Cianfriglia], Катрін Морен [Catherine Morin], Джермана Карначіна [Germana Carnacina]

Сюжет:
Молода самотня вдова Нора Ельмер регулярно приймає телефонні дзвінки від незнайомця, який дає їй зрозуміти, що не тільки добре знає подробиці її особистого життя, але й бував у її квартирі в її відсутність. Одного разу вночі він повідомляє, що збирається зайти до неї. Від страху вона одержує серцевий напад і випадає з вікна своєї квартири, що перебуває на 17- му поверсі.

Розслідування доручається комісарові Жану Летельє...


Тривалість: 02:05:34
Якість: 720p
Відео:
кодек:
розмір кадру: 1196 х 720
бітрейт: 8000 Кб/с

Аудіо # 1:
мова: українська
переклад: двоголосий закадровий
кодек: 2.0
бітрейт: 192 кб/с

Аудіо # 2:
мова: французька
переклад: оригінал
кодек: 2.0
бітрейт: 192 кб/с

Аудіо # 3:
мова: французька
переклад: оригінал
кодек: 2.0
бітрейт: 481 кб/с

Субтитри # 1: (Full)
мова: англійська
тип: програмні (м'які)
формат: *.srt

Субтитри # 2: (Full)
мова: англійська
тип: пререндерні
формат: *.pgs

Збережено оригінальні розділи, як на Blu-ray.
Info
General
Unique ID : 257893922318816232185775133768870808555 (0xC20490102EC558A5B39DF6E9EB384BEB)
Complete name : E:\Peur sur la ville (1975) 720p UkrFre Sub Eng [Hurtom].
Format :
Format version : Version 4
File size : 7.78 GiB
Duration : 2 h 5 min
Overall bit rate mode : Variable
Overall bit rate : 8 871 kb/s
Movie name : Страх над містом / Peur sur la ville (1975) 720p Ukr/Fre | Sub Eng [Hurtom]
Encoded date : UTC 2020-03-26 20:34:08
Writing application : v44.0.0 ('Domino') 64-bit
Writing library : libebml v1.3.10 + v1.5.2
Cover : Yes
Attachments : cover.jpg

Video
ID : 1
Format : AVC
Format/Info : Advanced Video Codec
Format profile : [email protected]
Format settings : CABAC / 9 Ref Frames
Format settings, CABAC : Yes
Format settings, Reference fra : 9 frames
Codec ID : V_MPEG4/ISO/AVC
Duration : 2 h 5 min
Bit rate : 8 000 kb/s
Width : 1 196 pixels
Height : 720 pixels
Display aspect ratio : 5:3
Frame rate mode : Constant
Frame rate : 24.000 FPS
Color space : YUV
Chroma subsampling : 4:2:0
Bit depth : 8 bits
Scan type : Progressive
Bits/(Pixel*Frame) : 0.387
Stream size : 7.02 GiB (90%)
Title : Peur sur la ville (1975) 720p Ukr/Fre | Sub Eng [Hurtom]
Writing library : core 148 r2692+54 69a6f49 t_mod_Custom [[email protected] X86_64]
Encoding settings : cabac=1 / ref=9 / deblock=1:-3:-3 / analyse=0x3:0x133 / me=umh / subme=11 / psy=1 / fade_compensate=0.00 / psy_rd=1.10:0.05 / mixed_ref=1 / me_range=24 / chroma_me=1 / trellis=2 / 8x8dct=1 / cqm=0 / deadzone=21,11 / fast_pskip=0 / chroma_qp_offset=-3 / threads=6 / lookahead_threads=1 / sliced_threads=0 / nr=0 / decimate=1 / interlaced=0 / bluray_compat=0 / constrained_intra=0 / fgo=0 / bframes=9 / b_pyramid=2 / b_adapt=2 / b_bias=0 / direct=3 / weightb=1 / open_gop=0 / weightp=2 / keyint=250 / keyint_min=24 / scenecut=40 / intra_refresh=0 / rc=2pass / mbtree=0 / bitrate=8000 / ratetol=1.0 / qcomp=0.70 / qpmin=0:0:0 / qpmax=69:69:69 / qpstep=4 / cplxblur=20.0 / qblur=0.5 / ip_ratio=1.25 / pb_ratio=1.15 / aq=3:0.65 / aq-sensitivity=10.00 / aq-factor=1.00:1.00:1.00 / aq2=1:0.60 / aq2-sensitivity=15.00 / aq2-factor=1.00:1.00:1.00 / aq3=3:[0.55:0.55]:[0.55:0.55]:[0.55:0.55]:[0.55:0.55] / aq3-sensitivity=10.00 / aq3-factor=[1.00:1.00]:[1.00:1.00]:[1.00:1.00] / aq3-boundary=192:64:24
Language : Ukrainian
Default : Yes
Forced : Yes
Color range : Limited
Matrix coefficients : BT.709

Audio #1
ID : 2
Format : AC-3
Format/Info : Audio Coding 3
Commercial name : Dolby Digital
Codec ID : A_AC3
Duration : 2 h 5 min
Bit rate mode : Constant
Bit rate : 192 kb/s
Channel(s) : 2 channels
Channel layout : L R
Sampling rate : 48.0 kHz
Frame rate : 31.250 FPS (1536 SPF)
Compression mode : Lossy
Stream size : 172 MiB (2%)
Title : DVO [1+1] [КІНО] 2.0
Language : Ukrainian
Service kind : Complete Main
Default : Yes
Forced : Yes

Audio #2
ID : 3
Format : AC-3
Format/Info : Audio Coding 3
Commercial name : Dolby Digital
Codec ID : A_AC3
Duration : 2 h 5 min
Bit rate mode : Constant
Bit rate : 192 kb/s
Channel(s) : 2 channels
Channel layout : L R
Sampling rate : 48.0 kHz
Frame rate : 31.250 FPS (1536 SPF)
Compression mode : Lossy
Stream size : 172 MiB (2%)
Title : Original 2.0
Language : French
Service kind : Complete Main
Default : No
Forced : No

Audio #3
ID : 4
Format :
Format/Info : Free Lossless Audio Codec
Codec ID : A_FLAC
Duration : 2 h 5 min
Bit rate mode : Variable
Bit rate : 481 kb/s
Channel(s) : 2 channels
Channel layout : L R
Sampling rate : 48.0 kHz
Frame rate : 11.719 FPS (4096 SPF)
Bit depth : 16 bits
Compression mode : Lossless
Stream size : 432 MiB (5%)
Title : Original 2.0
Writing library : libFLAC 1.2.1 (UTC 2007-09-17)
Language : French
Default : No
Forced : No

Text #1
ID : 5
Format : UTF-8
Codec ID : S_TEXT/UTF8
Codec ID/Info : UTF-8 Plain Text
Duration : 2 h 2 min
Bit rate : 39 b/s
Count of elements : 1011
Stream size : 35.5 KiB (0%)
Title : Eng (Full) SRT
Language : English
Default : No
Forced : No

Text #2
ID : 6
Format : PGS
Muxing mode : zlib
Codec ID : S_HDMV/PGS
Codec ID/Info : Picture based subtitle format used on BDs/HD-DVDs
Duration : 2 h 2 min
Bit rate : 17.9 kb/s
Count of elements : 2022
Stream size : 15.7 MiB (0%)
Title : Eng (Full) PGS
Language : English
Default : No
Forced : No

Menu
00:00:00.000 : en:Chapter 1
00:11:10.480 : en:Chapter 2
00:19:40.720 : en:Chapter 3
00:32:45.600 : en:Chapter 4
00:39:30.640 : en:Chapter 5
00:48:10.840 : en:Chapter 6
01:00:58.720 : en:Chapter 7
01:12:31.360 : en:Chapter 8
01:22:42.760 : en:Chapter 9
01:30:39.360 : en:Chapter 10
01:39:39.680 : en:Chapter 11
01:51:29.480 : en:Chapter 12
02:00:32.000 : en:Chapter 13
Скріншоти
Джерело: &
Звукозапис з ТБ: п. dvorsky, п. SweetN
Зведення звуку: п. taraskill1, п. rooster
Виготовлення постеру: п. pan_oleg
Особиста оцінка: 10 - без зайвих вагань рекомендую всім!


Срібний реліз (на рейтинг впливає 50% завантаженого)
 Трекер:    Зареєстрований   

Завантажити / скачати фільм українською



відео для новачків



 Зареєстрований:   2020-03-26 23:54
 Розмір:   7.78 GB 
 Оцінка фільму:   10/10 (Голосів: 5)
   
Інші релізи
Ваш часовий пояс: GMT + 2 Години

Нова тема   Відповісти