Під прицілом / Silent Trigger (1996) 1080p H.265 2xUkr/Eng | Sub Eng

Нові коментарі

Нова тема   Відповісти
Автор Повідомлення
Anonymous 







2020-03-26 23:49  
Під прицілом / Silent Trigger (1996) 1080p H.265 2xUkr/Eng | Sub Eng

Під прицілом / Silent Trigger (1996) 1080p H.265 2xUkr/Eng | Sub Eng


Жанр: бойовик, пригодницький, драма
Країна: Канада, Велика Британія
Кінокомпанія: Algonquin Productions Limited, Cine Grande Corporation, Conquistador Entertainment, Filmline International, Newmarket Capital Group
Режисер: Рассел Малкeй / Russell Mulcahy
Актори: Дольф Лундгрен (Waxman), Джина Беллман (Clegg), Конрад Данн (Klein), Крістофер Хеєрдал (O'Hara), Емма Стівенс (Target Woman), Александрія Абер (Peasant Girl), Рейнольд Робінсон (Refugee), Дейл Хеєс (Refugee), Ерін Сімс (Refugee), Джонатан Роберт Рондо (Refugee), Карл Алаккі (Soldier), Джонатан Ларок'ю (Soldier)

Сюжет:
«Снайпер», суперкомандос, що працює на «Агентство» - законспіровану урядову організацію, керовану «Координатором». «Снайпер» починає сумніватися, вдивлятися в очі та обличчя своїх мішеней.

А його «Контролер», другий член снайперської команди, незважаючи на молодість, володіє жорсткою хваткою і рішучістю найманого вбивці. Після того, як перша місія їх снайперської команди закінчилася провалом і ледь їх не згубила, вони знову зустрічаються при виконанні завдання для «Агентства», що дав їм шанс повернутися в систему.

Їх мета: автомобіль, який повинен проїхати по швидкісному шосе на світанку. Їм протистоять не тільки сумніви, примари і беззахисна мішень. «Координатор» віддав наказ «Контролерові» знищити «Снайпера», якщо той знову провалить операцію.

Тривалість: 01:33:52
Якість:

Відео:
кодек: H.265 (HEVC)
розмір кадру: 1920 x 816
бітрейт: 8 767 кб/с
бітова глибина: 10 біт

Увага! Перед завантаженням переконайтесь, що ваш пристрій відтворення (та/або ПЗ) підтримує H.265 (HEVC)

Аудіо # 1:
мова: українська
переклад: двоголосий закадровий
кодек: AC-3 2.0
бітрейт: 192 кб/с

Аудіо # 2:
мова: українська
переклад: двоголосий закадровий
кодек: AC-3 2.0
бітрейт: 192 кб/с

Аудіо # 3:
мова: англійська
переклад: оригінал
кодек: 5.1
бітрейт: 768 кб/с

Субтитри # 1: (Full)
мова: англійська
тип: програмні (м'які)
формат: *.srt


Info
Код:
General
Unique ID                                : 310597700191162701312185769100219273496 (0xE9AAF0EEEAF79AAE2B5751D3C4D05118)
Complete name                            : Silent Trigger (1996) 1080p H.265 [2xUKR_ENG] [Hurtom].
Format                                   :
Format version                           : Version 4
File size                                : 6.51 GiB
Duration                                 : 1 h 33 min
Overall bit rate                         : 9 917 kb/s
Movie name                               : Під прицілом / Silent Trigger (1996)
Encoded date                             : UTC 2020-03-26 20:40:49
Writing application                      : v20.0.0 ('I Am The Sun') 64-bit
Writing library                          : libebml v1.3.5 + v1.4.8
Cover                                    : Yes
Attachments                              : Cover.jpg

Video
ID                                       : 1
Format                                   : HEVC
Format/Info                              : High Efficiency Video Coding
Format profile                           : Main [email protected]@High
Codec ID                                 : V_MPEGH/ISO/HEVC
Duration                                 : 1 h 33 min
Bit rate                                 : 8 767 kb/s
Width                                    : 1 920 pixels
Height                                   : 816 pixels
Display aspect ratio                     : 2.35:1
Frame rate mode                          : Constant
Frame rate                               : 23.976 (24000/1001) FPS
Color space                              : YUV
Chroma subsampling                       : 4:2:0
Bit depth                                : 10 bits
Bits/(Pixel*Frame)                       : 0.233
Stream size                              : 5.75 GiB (88%)
Title                                    : Під прицілом / Silent Trigger (1996)
Writing library                          : x265 2.9+2-7e978ed93d60:[Windows][MSVC 1915][64 bit] 10bit
Encoding settings                        : cpuid=1176575 / frame-threads=4 / numa-pools=16 / wpp / no-pmode / no-pme / no-psnr / no-ssim / log-level=2 / input-csp=1 / input-res=1920x816 / interlace=0 / total-frames=135053 / level-idc=41 / high-tier=1 / uhd-bd=0 / ref=5 / no-allow-non-conformance / no-repeat-headers / annexb / no-aud / no-hrd / info / hash=0 / no-temporal-layers / open-gop / min-keyint=23 / keyint=240 / gop-lookahead=0 / bframes=10 / b-adapt=2 / b-pyramid / bframe-bias=0 / rc-lookahead=60 / lookahead-slices=4 / scenecut=40 / radl=0 / no-intra-refresh / ctu=64 / min-cu-size=8 / rect / amp / max-tu-size=32 / tu-inter-depth=4 / tu-intra-depth=4 / limit-tu=1 / rdoq-level=2 / dynamic-rd=0.00 / no-ssim-rd / signhide / no-tskip / nr-intra=0 / nr-inter=0 / no-constrained-intra / no-strong-intra-smoothing / max-merge=5 / limit-refs=2 / limit-modes / me=3 / subme=7 / merange=57 / temporal-mvp / weightp / weightb / no-analyze-src-pics / deblock=-3:-2 / no-sao / no-sao-non-deblock / rd=6 / no-early-skip / rskip / no-fast-intra / no-tskip-fast / no-cu-lossless / b-intra / no-splitrd-skip / rdpenalty=0 / psy-rd=1.20 / psy-rdoq=1.15 / no-rd-refine / no-lossless / cbqpoffs=0 / crqpoffs=0 / rc=crf / crf=20.0 / qcomp=0.72 / qpstep=4 / stats-write=0 / stats-read=0 / vbv-maxrate=50000 / vbv-bufsize=50000 / vbv-init=0.9 / crf-max=0.0 / crf-min=0.0 / ipratio=1.40 / pbratio=1.30 / aq-mode=2 / aq-strength=0.70 / no-cutree / zone-count=0 / no-strict-cbr / qg-size=32 / no-rc-grain / qpmax=69 / qpmin=0 / no-const-vbv / sar=1 / overscan=0 / videoformat=5 / range=0 / colorprim=1 / transfer=1 / colormatrix=1 / chromaloc=0 / display-window=0 / max-cll=0,0 / min-luma=0 / max-luma=1023 / log2-max-poc-lsb=8 / vui-timing-info / vui-hrd-info / slices=1 / no-opt-qp-pps / no-opt-ref-list-length-pps / no-multi-pass-opt-rps / scenecut-bias=0.05 / no-opt-cu-delta-qp / aq-motion / no-hdr / no-hdr-opt / no-dhdr10-opt / no-idr-recovery-sei / analysis-reuse-level=5 / scale-factor=0 / refine-intra=0 / refine-inter=0 / refine-mv=0 / no-limit-sao / ctu-info=0 / no-lowpass-dct / refine-mv-type=0 / copy-pic=1 / max-ausize-factor=1.0 / no-dynamic-refine / no-single-sei
Language                                 : English
Default                                  : Yes
Forced                                   : No
Color range                              : Limited
Color primaries                          : BT.709
Transfer characteristics                 : BT.709
Matrix coefficients                      : BT.709

Audio #1
ID                                       : 2
Format                                   : AC-3
Format/Info                              : Audio Coding 3
Commercial name                          : Dolby Digital
Codec ID                                 : A_AC3
Duration                                 : 1 h 33 min
Bit rate mode                            : Constant
Bit rate                                 : 192 kb/s
Channel(s)                               : 2 channels
Channel layout                           : L R
Sampling rate                            : 48.0 kHz
Frame rate                               : 31.250 FPS (1536 SPF)
Compression mode                         : Lossy
Stream size                              : 129 MiB (2%)
Title                                    : / 2.0 Ch / 192 kbps / ДЗ / NLO
Language                                 : Ukrainian
Service kind                             : Complete Main
Default                                  : Yes
Forced                                   : Yes

Audio #2
ID                                       : 3
Format                                   : AC-3
Format/Info                              : Audio Coding 3
Commercial name                          : Dolby Digital
Codec ID                                 : A_AC3
Duration                                 : 1 h 33 min
Bit rate mode                            : Constant
Bit rate                                 : 192 kb/s
Channel(s)                               : 2 channels
Channel layout                           : L R
Sampling rate                            : 48.0 kHz
Frame rate                               : 31.250 FPS (1536 SPF)
Compression mode                         : Lossy
Stream size                              : 129 MiB (2%)
Title                                    : / 2.0 Ch / 192 kbps / ДЗ / 2+2
Language                                 : Ukrainian
Service kind                             : Complete Main
Default                                  : No
Forced                                   : No

Audio #3
ID                                       : 4
Format                                   :
Format/Info                              : Digital Theater Systems
Codec ID                                 : A_DTS
Duration                                 : 1 h 33 min
Bit rate mode                            : Constant
Bit rate                                 : 768 kb/s
Channel(s)                               : 6 channels
Channel layout                           : C L R Ls Rs LFE
Sampling rate                            : 48.0 kHz
Frame rate                               : 93.750 FPS (512 SPF)
Bit depth                                : 16 bits
Compression mode                         : Lossy
Stream size                              : 516 MiB (8%)
Title                                    : / 5.1 Ch / 768 kbps / Original
Language                                 : English
Default                                  : No
Forced                                   : No

Text
ID                                       : 5
Format                                   : UTF-8
Codec ID                                 : S_TEXT/UTF8
Codec ID/Info                            : UTF-8 Plain Text
Duration                                 : 1 h 22 min
Bit rate                                 : 25 b/s
Count of elements                        : 520
Stream size                              : 15.3 KiB (0%)
Title                                    : Full
Language                                 : English
Default                                  : Yes
Forced                                   : No

Menu
00:00:00.000                             : en:
00:10:55.445                             : en:
00:27:06.123                             : en:
00:38:09.495                             : en:
00:50:39.286                             : en:
01:01:01.823                             : en:
01:13:00.167                             : en:
01:30:20.622                             : en:
01:33:42.700                             : en:
01:33:50.832                             : en:
Світлини




Джерело: &
Особиста оцінка: 0 - не дивився


Срібний реліз (на рейтинг впливає 50% завантаженого)
 Трекер:    Зареєстрований   

Завантажити / скачати фільм українською



відео для новачків



 Зареєстрований:   2020-03-26 23:49
 Розмір:   6.51 GB 
 Оцінка фільму:   7.8/10 (Голосів: 5)
   
Інші релізи
+380954897458 
Попереджень: 2
Попереджень: 2 


З нами з: 02.06.17
Востаннє: 03.04.20
Повідомлень: 726

2020-03-29 18:11  
Це останній хороший бойовик з нордичним блондином Лундгреном. Простий за сюжетом, але ефектний та видовищний, даремно не витратили жодного центу із 9-мільйонного бюджету. Екшен знятий майстерно, режисер Малкехі це вміє. Цікаво було відмітити Крістофера Хеєрдала, племінника того самого Тура Хеєрдала, в ролі охоронця-нарика. Happy
Ваш часовий пояс: GMT + 2 Години

Нова тема   Відповісти