1917 / 1917 (2019) UHD Remux 4K 2160p Ukr/Eng | Sub Eng

Нові коментарі

Нова тема   Відповісти
Автор Повідомлення
Anonymous 







2020-03-26 23:12  
1917 / 1917 (2019) UHD Remux 4K 2160p Ukr/Eng | Sub Eng

1917 / 1917 (2019) UHD Remux 4K 2160p Ukr/Eng | Sub Eng


Альтернативний постер


Країна: США, Велика Британія, Індія, Іспанія, Канада

Top Rated Movies #73





Кінокомпанія: DreamWorks, Reliance Entertainment, New Republic Pictures
Режисер: Сем Мендес (Sam Mendes)
Актори: Дін-Чарльз Чепмен (Dean-Charles Chapman), Джордж МакКей (George MacKay), Ендрю Скотт (Andrew Scott), Колін Ферт (Colin Firth), Деніел Мейс (Daniel Mays), Марк Стронґ (Mark Strong), Річард Медден (Richard Madden), Бенедикт Камбербетч (Benedict Cumberbatch) та інші.

Сюжет:
1917 рік, Перша світова війна поки й не думає закінчуватися. У воєнний час на прийняття рішення у вас рідко є години або хоча би хвилини – часом Вам потрібно щось зробити в лічені секунди. Двом молодим солдатам, Шоффілду і Блейку, потрібно зробити неможливе – прорватися крізь ворожу територію, щоб попередити інший батальйон про пастку, у яку вони йдуть. Це по-справжньому смертельна місія, але тільки від цих двох хлопців залежить доля 1600 солдатів. І найбільше Блейк хоче врятувати свого брата, який як раз може загинути в тій пастці. Вони будуть багато ризикувати своїми життями, адже час зовсім не на їхньому боці.


Тривалість: 01:58:59
Якість: UHD Remux 4K 2160p

Відео:
кодек: H.265 (HEVC)
розмір кадру: 3840x2160
бітрейт: 70109 кб/с
бітова глибина: 10 біт
кольоровий простір: BT.2020 (HDR)

Аудіо # 1:
мова: українська
переклад: професійний дубльований
кодек: 2.0
бітрейт: 192 кб/с

Аудіо # 2:
мова: англійська
переклад: оригінал
кодек: 5.1
бітрейт: 640 кб/с

Аудіо # 2:
мова: англійська
переклад: оригінал
кодек: TrueHD + Atmos 7.1
бітрейт: 3810 кб/с

Субтитри # 1 : (Forced)
мова: українська
тип: програмні (м'які)
формат: *.srt

Субтитри #2 - 3 : (Full, SDH)
мова: англійська
тип: програмні (м'які)
формат: *.srt

Info
Код:
General
Complete name                            : 1917 (2019) UHD Remux 2160p {4K_HDR_Dolby Vision} [ukr, eng] [ViDeO_Hurtom].
Format                                   :
Format version                           : Version 4
File size                                : 62.2 GiB
Duration                                 : 1 h 58 min
Overall bit rate mode                    : Variable
Overall bit rate                         : 74.8 Mb/s
Movie name                               : 1917 (2019)
Encoded date                             : UTC 2020-03-26 17:51:39
Writing application                      : v30.1.0 ('Forever And More') 64-bit
Writing library                          : libebml v1.3.6 + v1.4.9
Cover                                    : Yes
Attachments                              : cover.jpg

Video
ID                                       : 1
Format                                   : HEVC
Format/Info                              : High Efficiency Video Coding
Commercial name                          : HDR10
Format profile                           : Main [email protected]@High
Codec ID                                 : V_MPEGH/ISO/HEVC
Duration                                 : 1 h 58 min
Bit rate                                 : 70.1 Mb/s
Width                                    : 3 840 pixels
Height                                   : 2 160 pixels
Display aspect ratio                     : 16:9
Frame rate mode                          : Constant
Frame rate                               : 23.976 (24000/1001) FPS
Color space                              : YUV
Chroma subsampling                       : 4:2:0 (Type 2)
Bit depth                                : 10 bits
Bits/(Pixel*Frame)                       : 0.353
Stream size                              : 58.3 GiB (94%)
Default                                  : Yes
Forced                                   : No
Color range                              : Limited
Color primaries                          : BT.2020
Transfer characteristics                 : PQ
Matrix coefficients                      : BT.2020 non-constant
Mastering display color primaries        : Display P3
Mastering display luminance              : min: 0.0001 cd/m2, max: 1000 cd/m2
Maximum Content Light Level              : 1000 cd/m2
Maximum Frame-Average Light Level        : 168 cd/m2

Audio #1
ID                                       : 2
Format                                   : AC-3
Format/Info                              : Audio Coding 3
Commercial name                          : Dolby Digital
Codec ID                                 : A_AC3
Duration                                 : 1 h 58 min
Bit rate mode                            : Constant
Bit rate                                 : 192 kb/s
Channel(s)                               : 2 channels
Channel layout                           : L R
Sampling rate                            : 48.0 kHz
Frame rate                               : 31.250 FPS (1536 SPF)
Bit depth                                : 16 bits
Compression mode                         : Lossy
Delay relative to video                  : 900 ms
Stream size                              : 163 MiB (0%)
Title                                    : , 2 ch, 192 Кбт/с
Language                                 : Ukrainian
Service kind                             : Complete Main
Default                                  : Yes
Forced                                   : No

Audio #2
ID                                       : 3
Format                                   : AC-3
Format/Info                              : Audio Coding 3
Commercial name                          : Dolby Digital
Codec ID                                 : A_AC3
Duration                                 : 1 h 58 min
Bit rate mode                            : Constant
Bit rate                                 : 640 kb/s
Channel(s)                               : 6 channels
Channel layout                           : L R C LFE Ls Rs
Sampling rate                            : 48.0 kHz
Frame rate                               : 31.250 FPS (1536 SPF)
Bit depth                                : 16 bits
Compression mode                         : Lossy
Stream size                              : 545 MiB (1%)
Title                                    : , 6 ch, 640 Кбт/с
Language                                 : English
Service kind                             : Complete Main
Default                                  : No
Forced                                   : No

Audio #3
ID                                       : 4
Format                                   : MLP FBA 16-ch
Format/Info                              : Meridian Lossless Packing FBA with 16-channel presentation
Commercial name                          : Dolby TrueHD with Dolby Atmos
Codec ID                                 : A_TRUEHD
Duration                                 : 1 h 58 min
Bit rate mode                            : Variable
Bit rate                                 : 3 810 kb/s
Maximum bit rate                         : 7 158 kb/s
Channel(s)                               : 8 channels
Channel layout                           : L R C LFE Ls Rs Lb Rb
Sampling rate                            : 48.0 kHz
Frame rate                               : 1 200.000 FPS (40 SPF)
Compression mode                         : Lossless
Stream size                              : 3.17 GiB (5%)
Title                                    : TrueHD+Atmos, 8 ch, 3810 Кбт/с
Language                                 : English
Default                                  : No
Forced                                   : No
Number of dynamic objects                : 11
Bed channel count                        : 1 channel
Bed channel configuration                : LFE

Text #1
ID                                       : 5
Format                                   : UTF-8
Codec ID                                 : S_TEXT/UTF8
Codec ID/Info                            : UTF-8 Plain Text
Duration                                 : 1 h 31 min
Bit rate                                 : 2 b/s
Count of elements                        : 25
Stream size                              : 1.36 KiB (0%)
Title                                    : Forced
Language                                 : Ukrainian
Default                                  : Yes
Forced                                   : No

Text #2
ID                                       : 6
Format                                   : UTF-8
Codec ID                                 : S_TEXT/UTF8
Codec ID/Info                            : UTF-8 Plain Text
Duration                                 : 1 h 45 min
Bit rate                                 : 35 b/s
Count of elements                        : 937
Stream size                              : 27.1 KiB (0%)
Title                                    : Full
Language                                 : English
Default                                  : No
Forced                                   : No

Text #3
ID                                       : 7
Format                                   : UTF-8
Codec ID                                 : S_TEXT/UTF8
Codec ID/Info                            : UTF-8 Plain Text
Duration                                 : 1 h 45 min
Bit rate                                 : 40 b/s
Count of elements                        : 1100
Stream size                              : 31.2 KiB (0%)
Title                                    : SDH
Language                                 : English
Default                                  : No
Forced                                   : No
Cкріншоти




Подяка за аудіо: Jatx_11
Джерело: &
Особиста оцінка: 6 - третій сорт - не брак
Увага! Перед завантаженням переконайтесь, що ваш пристрій відтворення (та/або ПЗ) підтримує H.265 (HEVC)


Золотий реліз (завантажене не впливає на рейтинг)
 Трекер:    Зареєстрований   

Завантажити / скачати фільм українською



відео для новачків



 Зареєстрований:   2020-03-26 23:12
 Розмір:   62.19 GB 
 Оцінка фільму:   9.7/10 (Голосів: 20)
   
Інші релізи
   1917 / 1917 (2019) 1080p H.265 HDR Ukr/Eng | Sub Eng -Star-Lord-  45 / 6   12.04 GB   2020-03-30 13:49 
   1917 / 1917 (2019) Remux 1080p Ukr/Eng | Sub Eng MakRA  73 / 2   32.24 GB   2020-03-26 23:01 
   1917 / 1917 (2019) Ukr/Eng antik_2008  225 / 4   1.99 GB   2020-03-26 18:58 
   1917 / 1917 (2019) 720p Ukr/Eng | Sub Eng 11FrYkT  225 / 6   5.52 GB   2020-03-26 18:53 
   1917 / 1917 (2019) 1080p Ukr/Eng | Sub Eng antik_2008  274 / 11   12.13 GB   2020-03-26 17:32 
   1917 / 1917 (2019) AVC Ukr/Eng | sub Eng Jatx_11  493 / 5   2.13 GB   2020-03-26 15:39 
Sexy_Beast 
Частий відвідувач


З нами з: 18.02.17
Востаннє: 03.04.20
Повідомлень: 37

2020-03-27 02:58  
Добрий вечір. Відомо коли буде якісніший звук? Щоб орієнтуватись чи варто чекати....
Garikafterwork 
Частий відвідувач


З нами з: 02.10.12
Востаннє: 01.04.20
Повідомлень: 27

2020-03-27 12:20  
Теж цікавить 4К якість та 5.1 звук. Коли буде?
Anonymous 







2020-03-27 12:23  
Sexy_Beast написано:
Добрий вечір. Відомо коли буде якісніший звук? Щоб орієнтуватись чи варто чекати....

Garikafterwork написано:
Теж цікавить 4К якість та 5.1 звук. Коли буде?

тут і так гарний звук
https://toloka.to/t108952

Garikafterwork 
Частий відвідувач


З нами з: 02.10.12
Востаннє: 01.04.20
Повідомлень: 27

2020-03-27 12:34  
Anonymous
720р?
Мене цікавить UHD зі звуком 5.1

Такі фільми треба дивитися з максимальним зануренням.

bbuzzy 
Частий відвідувач


З нами з: 18.12.09
Востаннє: 03.04.20
Повідомлень: 46

2020-03-27 12:40  
Ціни б фільму не було, якби ж повні укр субтитри були. Фільм 10/10
Anonymous 







2020-03-27 12:41  
Garikafterwork написано:

Anonymous
720р?
Мене цікавить UHD зі звуком 5.1

Такі фільми треба дивитися з максимальним зануренням.

Такі фільми взагалі дивиться не треба ))

Так собі вийшов , більше балакали про нього чим зняли

в тому посиланні все написано
добре , що це аудіо є
5.1 навряд , якщо буде, то дуже довго чекати його треба і надіятися , що буде

Olkos 
VIP


З нами з: 08.03.09
Востаннє: 03.04.20
Повідомлень: 542

2020-03-27 16:13  
Просто чудовий фільм!
Сподобався найбільше серед всіх номінантів на Оскар.

ehnaton 
Новенький


З нами з: 01.06.13
Востаннє: 30.03.20
Повідомлень: 9

2020-03-30 19:34  
Я не знаю ЩО знайшли у цьому фільмі люди що пишуть що він ЧУДОВИЙ.......особисто я жалкую потрачений на нього час......примітивний сюжет....як і сцени спецефектів, якщо їх такими можна назвати......ЩО у цьому фільмі може "захопити" - я не знаю.......як на мене, за 10-ти бальною системою на 3-4 бали....
y.kushnir 
Новенький


З нами з: 23.01.16
Востаннє: 03.04.20
Повідомлень: 5

2020-04-01 23:48  
Фільм неоднозначний, важкий, напружений, проте знятий з цікавого ракурсу
Не скажу що в захваті, але і сказати шо шкода потраченого часу не можу
Показує першу світову війну і простих солдат під час неї

Ваш часовий пояс: GMT + 2 Години

Нова тема   Відповісти