1917 / 1917 (2019) Remux 1080p Ukr/Eng | Sub Eng

Нові коментарі

Нова тема   Відповісти
Автор Повідомлення
MakRA 
VIP


З нами з: 11.11.18
Востаннє: 03.04.20
Повідомлень: 939

2020-03-26 23:01  
1917 / 1917 (2019) Remux 1080p Ukr/Eng | Sub Eng


«Час — це ворог»

Українські постери:


Жанр: військовий, драма, історичний
Країна: США , Велика Британія , Індія , Іспанія , Канада



Кінокомпанія: DreamWorks, Reliance Entertainment, New Republic Pictures
Режисер: Сем Мендес [Sam Mendes]
Актори: Дін-Чарльз Чепмен [Dean-Charles Chapman], Джордж МакКей [George MacKay], Ендрю Скотт [Andrew Scott], Колін Ферт [Colin Firth], Деніел Мейс [Daniel Mays], Марк Стронґ [Mark Strong], Річард Медден [Richard Madden], Бенедикт Камбербетч [Benedict Cumberbatch]

Сюжет:
1917 рік, Перша світова війна поки й не думає закінчуватися. У воєнний час на прийняття рішення у вас рідко є години або хоча би хвилини – часом Вам потрібно щось зробити в лічені секунди. Двом молодим солдатам, Шоффілду і Блейку, потрібно зробити неможливе – прорватися крізь ворожу територію, щоб попередити інший батальйон про пастку, у яку вони йдуть. Це по-справжньому смертельна місія, але тільки від цих двох хлопців залежить доля 1600 солдатів. І найбільше Блейк хоче врятувати свого брата, який як раз може загинути в тій пастці. Вони будуть багато ризикувати своїми життями, адже час зовсім не на їхньому боці.

Цікаве про фільм та зйомки:


- Для зйомок фільму було вирито понад півтора кілометри траншей.
- 6 місяців знадобилося на репетицію всіх сцен перед початком зйомок.
- В районі Лоу Форс, на річці Тис, Тісдейл, де знімався фільм, були встановлені знаки, що попереджають людей, що розкидані навколо ділянки тіла - це манекени.
- Фільм знімали довгими уривками (до 8 з половиною хвилин), а потім змонтували так, щоб він виглядав одним цілим дублем.
- Фахівці з охорони природних ресурсів, були стурбовані тим, що зйомки на рівнині Солсбері, що неподалік від Стоунхенджа, можуть пошкодити гіпотетичним місць поховання, тому попросили провести археологічні дослідження до початку будівництва будь-якого об'єкта.


Тривалість: 01:58:58
Якість: Remux 1080p
Відео:
кодек:
розмір кадру: 1920 х 1080
бітрейт: 33,2 Мб/с

Аудіо # 1:
мова: українська
переклад: професійний дубльований
кодек: 2.0
бітрейт: 192 кб/с

Аудіо # 2:
мова: англійська
переклад: оригінал
кодек: TrueHD Atmos 7.1
бітрейт: 3810 кб/с

Аудіо # 3:
мова: англійська
переклад: оригінал
кодек: 5.1
бітрейт: 640 кб/с

Аудіо # 4:
мова: англійська
переклад: оригінал | Compatible Track
кодек: 5.1
бітрейт: 480 кб/с

Аудіо # 5:
мова: англійська
переклад: коментарі режисера Сема Мендеса
кодек: 2.0
бітрейт: 192 кб/с

Аудіо # 6:
мова: англійська
переклад: коментарі оператора Роджера Дікінса
кодек: 2.0
бітрейт: 192 кб/с

Субтитри # 1: (Forced)
мова: українська
тип: програмні (м'які)
формат: *.srt

Субтитри # 2-4: (Full) | (SDH) | (SDH-Colored)
мова: англійська
тип: програмні (м'які)
формат: *.srt

Субтитри # 5: (SDH)
мова: англійська
тип: пререндерні
формат: *.pgs
Info
General
Unique ID : 276834125290628065078529092436383792888 (0xD044502AC3EB5557C60EBBE20F187EF8)
Complete name : I:\+ Фільми в HD\воєнний, драма\1917 (2019) Remux 1080p UkrEng Sub Eng [Hurtom].
Format :
Format version : Version 4
File size : 32.2 GiB
Duration : 1 h 58 min
Overall bit rate mode : Variable
Overall bit rate : 38.8 Mb/s
Movie name : 1917 / 1917 (2019) Remux 1080p Ukr/Eng | Sub Eng [Hurtom]
Encoded date : UTC 2020-03-26 18:37:36
Writing application : v44.0.0 ('Domino') 64-bit
Writing library : libebml v1.3.10 + v1.5.2
Cover : Yes
Attachments : cover.jpg

Video
ID : 1
Format : AVC
Format/Info : Advanced Video Codec
Format profile : [email protected]
Format settings : CABAC / 4 Ref Frames
Format settings, CABAC : Yes
Format settings, Reference fra : 4 frames
Codec ID : V_MPEG4/ISO/AVC
Duration : 1 h 58 min
Bit rate mode : Variable
Bit rate : 33.2 Mb/s
Maximum bit rate : 37.2 Mb/s
Width : 1 920 pixels
Height : 1 080 pixels
Display aspect ratio : 16:9
Frame rate mode : Constant
Frame rate : 23.976 (24000/1001) FPS
Color space : YUV
Chroma subsampling : 4:2:0
Bit depth : 8 bits
Scan type : Progressive
Bits/(Pixel*Frame) : 0.669
Stream size : 27.6 GiB (86%)
Title : 1917 (2019) Remux 1080p Ukr/Eng | Sub Eng [Hurtom]
Language : Ukrainian
Default : Yes
Forced : Yes

Audio #1
ID : 2
Format : AC-3
Format/Info : Audio Coding 3
Commercial name : Dolby Digital
Codec ID : A_AC3
Duration : 1 h 58 min
Bit rate mode : Constant
Bit rate : 192 kb/s
Channel(s) : 2 channels
Channel layout : L R
Sampling rate : 48.0 kHz
Frame rate : 31.250 FPS (1536 SPF)
Compression mode : Lossy
Stream size : 163 MiB (0%)
Title : DUB [UKR] 2.0
Language : Ukrainian
Service kind : Complete Main
Default : Yes
Forced : Yes

Audio #2
ID : 3
Format : MLP FBA 16-ch
Format/Info : Meridian Lossless Packing FBA with 16-channel presentation
Commercial name : Dolby TrueHD with Dolby Atmos
Codec ID : A_TRUEHD
Duration : 1 h 58 min
Bit rate mode : Variable
Bit rate : 3 810 kb/s
Maximum bit rate : 7 158 kb/s
Channel(s) : 8 channels
Channel layout : L R C LFE Ls Rs Lb Rb
Sampling rate : 48.0 kHz
Frame rate : 1 200.000 FPS (40 SPF)
Compression mode : Lossless
Stream size : 3.17 GiB (10%)
Title : Original TrueHD Atmos 7.1
Language : English
Default : No
Forced : No
Number of dynamic objects : 11
Bed channel count : 1 channel
Bed channel configuration : LFE

Audio #3
ID : 4
Format : AC-3
Format/Info : Audio Coding 3
Commercial name : Dolby Digital
Codec ID : A_AC3
Duration : 1 h 58 min
Bit rate mode : Constant
Bit rate : 640 kb/s
Channel(s) : 6 channels
Channel layout : L R C LFE Ls Rs
Sampling rate : 48.0 kHz
Frame rate : 31.250 FPS (1536 SPF)
Compression mode : Lossy
Stream size : 545 MiB (2%)
Title : Original 5.1
Language : English
Service kind : Complete Main
Default : No
Forced : No

Audio #4
ID : 5
Format : AC-3
Format/Info : Audio Coding 3
Commercial name : Dolby Digital
Codec ID : A_AC3
Duration : 1 h 58 min
Bit rate mode : Constant
Bit rate : 448 kb/s
Channel(s) : 6 channels
Channel layout : L R C LFE Ls Rs
Sampling rate : 48.0 kHz
Frame rate : 31.250 FPS (1536 SPF)
Compression mode : Lossy
Stream size : 381 MiB (1%)
Title : Original 5.1 | Compatible Track
Language : English
Service kind : Complete Main
Default : No
Forced : No

Audio #5
ID : 6
Format : AC-3
Format/Info : Audio Coding 3
Commercial name : Dolby Digital
Codec ID : A_AC3
Duration : 1 h 58 min
Bit rate mode : Constant
Bit rate : 192 kb/s
Channel(s) : 2 channels
Channel layout : L R
Sampling rate : 48.0 kHz
Frame rate : 31.250 FPS (1536 SPF)
Compression mode : Lossy
Stream size : 163 MiB (0%)
Title : Original 2.0 | Commentary by Director Sam Mendes
Language : English
Service kind : Complete Main
Default : No
Forced : No

Audio #6
ID : 7
Format : AC-3
Format/Info : Audio Coding 3
Commercial name : Dolby Digital
Codec ID : A_AC3
Duration : 1 h 58 min
Bit rate mode : Constant
Bit rate : 192 kb/s
Channel(s) : 2 channels
Channel layout : L R
Sampling rate : 48.0 kHz
Frame rate : 31.250 FPS (1536 SPF)
Compression mode : Lossy
Stream size : 163 MiB (0%)
Title : Original 2.0 | Commentary by Cinematographer Roger Deakins
Language : English
Service kind : Complete Main
Default : No
Forced : No

Text #1
ID : 8
Format : UTF-8
Codec ID : S_TEXT/UTF8
Codec ID/Info : UTF-8 Plain Text
Duration : 1 h 31 min
Bit rate : 2 b/s
Count of elements : 25
Stream size : 1.36 KiB (0%)
Title : Ukr (Forced) SRT
Language : Ukrainian
Default : Yes
Forced : Yes

Text #2
ID : 9
Format : UTF-8
Codec ID : S_TEXT/UTF8
Codec ID/Info : UTF-8 Plain Text
Duration : 1 h 45 min
Bit rate : 35 b/s
Count of elements : 937
Stream size : 27.1 KiB (0%)
Title : Eng (Full) SRT
Language : English
Default : No
Forced : No

Text #3
ID : 10
Format : UTF-8
Codec ID : S_TEXT/UTF8
Codec ID/Info : UTF-8 Plain Text
Duration : 1 h 45 min
Bit rate : 40 b/s
Count of elements : 1100
Stream size : 31.2 KiB (0%)
Title : Eng (SDH) SRT
Language : English
Default : No
Forced : No

Text #4
ID : 11
Format : UTF-8
Codec ID : S_TEXT/UTF8
Codec ID/Info : UTF-8 Plain Text
Duration : 1 h 58 min
Bit rate : 75 b/s
Count of elements : 1475
Stream size : 65.3 KiB (0%)
Title : Eng (Full SDH-Colored) SRT
Language : English
Default : No
Forced : No

Text #5
ID : 12
Format : PGS
Muxing mode : zlib
Codec ID : S_HDMV/PGS
Codec ID/Info : Picture based subtitle format used on BDs/HD-DVDs
Duration : 1 h 45 min
Bit rate : 28.0 kb/s
Count of elements : 2202
Stream size : 21.2 MiB (0%)
Title : Eng (SDH) PGS
Language : English
Default : No
Forced : No

Menu #1
00:00:00.000 : :Chapter 01
00:04:59.424 : :Chapter 02
00:08:19.374 : :Chapter 03
00:13:26.639 : :Chapter 04
00:16:38.789 : :Chapter 05
00:23:32.494 : :Chapter 06
00:30:28.660 : :Chapter 07
00:35:34.549 : :Chapter 08
00:42:25.376 : :Chapter 09
00:51:34.091 : :Chapter 10
00:56:36.310 : :Chapter 11
01:02:29.079 : :Chapter 12
01:06:33.573 : :Chapter 13
01:12:04.320 : :Chapter 14
01:19:45.197 : :Chapter 15
01:28:47.822 : :Chapter 16
01:33:43.451 : :Chapter 17
01:38:11.594 : :Chapter 18
01:41:43.681 : :Chapter 19
01:49:46.580 : :Chapter 20
Скріншоти
Джерело: &
Подяка за аудіо: п. Jatx_11 та п. antik_2008
Особиста оцінка: 10 - без зайвих вагань рекомендую всім!



Золотий реліз (завантажене не впливає на рейтинг)
 Трекер:    Зареєстрований   

Завантажити / скачати фільм українською



відео для новачків



 Зареєстрований:   2020-03-26 23:01
 Розмір:   32.24 GB 
 Оцінка фільму:   9.8/10 (Голосів: 21)
   
Інші релізи
   1917 / 1917 (2019) 1080p H.265 HDR Ukr/Eng | Sub Eng -Star-Lord-  45 / 7   12.04 GB   2020-03-30 13:49 
   1917 / 1917 (2019) UHD Remux 4K 2160p Ukr/Eng | Sub Eng antik_2008  75 / 4   62.19 GB   2020-03-26 23:12 
   1917 / 1917 (2019) Ukr/Eng antik_2008  223 / 4   1.99 GB   2020-03-26 18:58 
   1917 / 1917 (2019) 720p Ukr/Eng | Sub Eng 11FrYkT  230 / 6   5.52 GB   2020-03-26 18:53 
   1917 / 1917 (2019) 1080p Ukr/Eng | Sub Eng antik_2008  275 / 10   12.13 GB   2020-03-26 17:32 
   1917 / 1917 (2019) AVC Ukr/Eng | sub Eng Jatx_11  493 / 5   2.13 GB   2020-03-26 15:39 
Свирид Опанасович 
Новенький


З нами з: 30.01.17
Востаннє: 03.04.20
Повідомлень: 7

2020-03-27 12:06  
Цей фільм - кінематографічний оксиморон: шедевр, який не хочеться переглядати більше одного разу
Ваш часовий пояс: GMT + 2 Години

Нова тема   Відповісти