Аромати юності / Shikioriori / Flavors of Youth (2018) 720p Ukr/Jap

Нові коментарі

Нова тема   Відповісти
Автор Повідомлення
Gwean 
Відео Гуртом - фільмокрай
Відео Гуртом - фільмокрай


З нами з: 28.07.12
Востаннє: 03.04.20
Повідомлень: 595

2020-03-26 22:36  
Аромати юності / Shikioriori / Flavors of Youth (2018) 720p Ukr/Jap

Аромати юності / Shikioriori / Flavors of Youth (2018) 720p Ukr/Jap


Жанр: повсякденність
Країна: Японія



5.31 (300 голосів)

Кінокомпанія: CoMix Waves Films
Режисер: Такеучі Йошітака
Ролі озвучують: Бан Тайто, Котобукі Мінако, Ооцука Такео, Шіраіші Харука

Сюжет:
Суворе життя в Китаї, невпинне й невгамовне, містить вічні спогади про минулі дні. Аніме розповідає три різні історії про втрату молодості і зустріч з дорослим життям.

Хоча реальність може здатися мінливою, незмінними є недовговічні моменти дитинства. Повна миска локшини, краса родини та випробування першого кохання переживають неминучий потік часу, коли три різних персонажі досліджують силу зв’язків та тепло заповітних спогадів.


Тривалість: 1 серія: 01год 14хв 09с (цілком серій: 1)
Якість:
Відео:
кодек:
розмір кадру: 1280 х 720
бітрейт: 3000 кб/с

Аудіо # 1:
мова: українська
переклад: двоголосий закадровий
кодек: 2.0
бітрейт: 192 кб/с

Аудіо # 2:
мова: японська
переклад: оригінал
кодек: Е- 2.0
бітрейт: 128 кб/с

Субтитри (лише написи):
мова: українська
тип: програмні (м'які)
формат: *.
Info
General
Unique ID : 180186671547741903757269674317708787358 (0x878EB0CD36F059E6B9DB0D07B627FE9E)
Complete name : R:\Shikioriori\Shikioriori ( 720p ) Ukr DVO.
Format :
Format version : Version 4
File size : 1.70 GiB
Duration : 1 h 14 min
Overall bit rate mode : Variable
Overall bit rate : 3 286 kb/s
Encoded date : UTC 2020-03-21 16:16:56
Writing application : v7.0.0 ('Where We Going') 32bit built on Jun 9 2014 15:08:34
Writing library : libebml v1.3.0 + v1.4.1
Attachments : OpenSans-Semibold.ttf

Video
ID : 1
Format : AVC
Format/Info : Advanced Video Codec
Format profile : [email protected]
Format settings : CABAC / 3 Ref Frames
Format settings, CABAC : Yes
Format settings, Reference : 3 frames
Codec ID : V_MPEG4/ISO/AVC
Duration : 1 h 14 min
Bit rate mode : Variable
Bit rate : 3 000 kb/s
Maximum bit rate : 4 500 kb/s
Width : 1 280 pixels
Height : 720 pixels
Display aspect ratio : 16:9
Frame rate mode : Constant
Frame rate : 24.000 FPS
Color space : YUV
Chroma subsampling : 4:2:0
Bit depth : 8 bits
Scan type : Progressive
Bits/(Pixel*Frame) : 0.136
Stream size : 1.53 GiB (90%)
Title : Аромати юності
Writing library : core 148 r2715 7e75228
Encoding settings : cabac=1 / ref=3 / deblock=1:0:0 / analyse=0x1:0x111 / me=umh / subme=10 / psy=1 / psy_rd=1.00:0.00 / mixed_ref=1 / me_range=24 / chroma_me=1 / trellis=2 / 8x8dct=0 / cqm=0 / deadzone=21,11 / fast_pskip=1 / chroma_qp_offset=-2 / threads=8 / lookahead_threads=1 / sliced_threads=0 / nr=0 / decimate=1 / interlaced=0 / bluray_compat=0 / stitchable=1 / constrained_intra=0 / bframes=2 / b_pyramid=0 / b_adapt=2 / b_bias=0 / direct=3 / weightb=1 / open_gop=0 / weightp=2 / keyint=48 / keyint_min=25 / scenecut=0 / intra_refresh=0 / rc_lookahead=48 / rc=2pass / mbtree=1 / bitrate=3000 / ratetol=1.0 / qcomp=0.50 / qpmin=6 / qpmax=51 / qpstep=4 / cplxblur=20.0 / qblur=0.5 / vbv_maxrate=4500 / vbv_bufsize=6000 / nal_hrd=vbr / filler=0 / ip_ratio=1.40 / aq=1:1.00
Language : Japanese
Default : Yes
Forced : Yes

Audio #1
ID : 2
Format : AC-3
Format/Info : Audio Coding 3
Commercial name : Dolby Digital
Codec ID : A_AC3
Duration : 1 h 14 min
Bit rate mode : Constant
Bit rate : 192 kb/s
Channel(s) : 2 channels
Channel layout : L R
Sampling rate : 48.0 kHz
Frame rate : 31.250 FPS (1536 SPF)
Compression mode : Lossy
Stream size : 102 MiB (6%)
Title : DVO від Gwean & Maslinka
Language : Ukrainian
Service kind : Complete Main
Default : Yes
Forced : Yes

Audio #2
ID : 3
Format : E-AC-3
Format/Info : Enhanced AC-3
Commercial name : Dolby Digital Plus
Codec ID : A_EAC3
Duration : 1 h 14 min
Bit rate mode : Constant
Bit rate : 128 kb/s
Channel(s) : 2 channels
Channel layout : L R
Sampling rate : 48.0 kHz
Frame rate : 31.250 FPS (1536 SPF)
Compression mode : Lossy
Stream size : 67.9 MiB (4%)
Title : оригінальна доріжка
Language : Japanese
Service kind : Complete Main
Default : No
Forced : No

Text
ID : 4
Format :
Codec ID : S_TEXT/
Codec ID/Info : Advanced Sub Station Alpha
Duration : 1 h 8 min
Bit rate : 3 b/s
Count of elements : 25
Compression mode : Lossless
Stream size : 1.72 KiB (0%)
Title : написи
Language : Ukrainian
Default : Yes
Forced : Yes
Скріншоти




Озвучення: Gwean, Maslinka

Особиста оцінка: 8 - мені сподобалося


Авторський реліз (завантажувати можна без реєстрації)
 Трекер:    Зареєстрований   

Завантажити / скачати аніме українською



відео для новачків



 Зареєстрований:   2020-03-26 22:36
 Розмір:   1.7 GB 
 Оцінка аніме:   9.6/10 (Голосів: 5)
   
[email protected] 
Новенький


З нами з: 17.06.19
Востаннє: 03.04.20
Повідомлень: 2

2020-04-01 19:09  
Дуже тепло! Дякую!
Ваш часовий пояс: GMT + 2 Години

Нова тема   Відповісти