Сирена (Сезон 2) / Siren (Season 2) (2019) 1080p 3xUkr/Eng | sub Eng

Нові коментарі

Нова тема   Відповісти
Автор Повідомлення
Anonymous 







2020-03-26 21:56  
Сирена (Сезон 2) / Siren (Season 2) (2019) 1080p 3xUkr/Eng | sub Eng

Сирена (Сезон 2) / Siren (Season 2) (2019) 1080p 3xUkr/Eng | sub Eng


Жанр: драма, фентезі
Країна: США



Кінокомпанія: Freeform
Режисер: Ерік Волд (Eric Wald), Дін Вайт (Dean White)
Актори: Алекс Роу (Alex Roe), Елайн Пауелл (Eline Powell), Фола Еванс-Екінбола (Fola Evans-Akingbola) та інші

Сюжет:
У прибережний місто Брістоль-Коув прибуває таємнича дівчина. Виявляється, що місцева легенда про древню істоту, сирену, – правда. Та своєю появою вона розв’язує війну в океані.

Тривалість: 1 серія: ~42 хв. (цілком серій: 16)
Перелік серій
01) The Arrival
02) The Wolf at the Door
03) Natural Order
04) Oil & Water
05) Primal Instincts
06) Distress Call
07) Entrapment
08) Leverage
09) No North Star
10) All In
11) Mixed Signals
12) Serenity
13) The Outpost
14) The Last Mermaid
15) Sacrifice
16) New World Order
Якість: [Amazon]
Відео:
кодек:
розмір кадру: 1920 х 1080
бітрейт: 5-10 мб/с

Аудіо # 1:
мова: українська
переклад: багатоголосий закадровий | Новий канал
кодек: 2.0
бітрейт: 192 кб/с

Аудіо # 2:
мова: українська
переклад: багатоголосий закадровий | DniproFilm
кодек: 5.1 / 2.0*
бітрейт: 384 кб/с / 192 кб/с*
примітка: *з 9-ї серії

Аудіо # 3:
мова: українська
переклад: багатоголосий закадровий | AniUA
кодек: 2.0
бітрейт: 192 кб/с

Аудіо # 4:
мова: англійська
переклад: оригінал
кодек: E- 5.1
бітрейт: 640 кб/с

Субтитри:
мова: англійська
тип: програмні (м'які)
формат: *.srt
Info
General
Unique ID : 132056233379692620046546296832279349419 (0x63591AFCDD1BB8B58CCCCAB9416688AB)
Complete name : F:\Support\series\Siren (Season 2) [, 1080p, Ukr, Eng]\Siren. s02e01. The Arrival.
Format :
Format version : Version 4
File size : 3.16 GiB
Duration : 42 min 7 s
Overall bit rate : 10.7 Mb/s
Encoded date : UTC 2020-03-13 20:51:42
Writing application : v44.0.0 ('Domino') 64-bit
Writing library : libebml v1.3.10 + v1.5.2

Video
ID : 1
Format : AVC
Format/Info : Advanced Video Codec
Format profile : [email protected]
Format settings : CABAC / 4 Ref Frames
Format settings, CABAC : Yes
Format settings, Reference : 4 frames
Codec ID : V_MPEG4/ISO/AVC
Duration : 42 min 7 s
Bit rate mode : Constant
Bit rate : 9 333 kb/s
Nominal bit rate : 10 000 kb/s
Width : 1 920 pixels
Height : 1 080 pixels
Display aspect ratio : 16:9
Frame rate mode : Constant
Frame rate : 23.976 (24000/1001) FPS
Color space : YUV
Chroma subsampling : 4:2:0
Bit depth : 8 bits
Scan type : Progressive
Bits/(Pixel*Frame) : 0.188
Stream size : 2.75 GiB (87%)
Default : Yes
Forced : No
Color range : Limited
Color primaries : BT.709
Transfer characteristics : BT.709
Matrix coefficients : BT.709

Audio #1
ID : 2
Format : AC-3
Format/Info : Audio Coding 3
Commercial name : Dolby Digital
Codec ID : A_AC3
Duration : 42 min 7 s
Bit rate mode : Constant
Bit rate : 192 kb/s
Channel(s) : 2 channels
Channel layout : L R
Sampling rate : 48.0 kHz
Frame rate : 31.250 FPS (1536 SPF)
Compression mode : Lossy
Stream size : 57.8 MiB (2%)
Title : Новий
Language : Ukrainian
Service kind : Complete Main
Default : Yes
Forced : No

Audio #2
ID : 3
Format : AC-3
Format/Info : Audio Coding 3
Commercial name : Dolby Digital
Codec ID : A_AC3
Duration : 42 min 7 s
Bit rate mode : Constant
Bit rate : 384 kb/s
Channel(s) : 6 channels
Channel layout : L R C LFE Ls Rs
Sampling rate : 48.0 kHz
Frame rate : 31.250 FPS (1536 SPF)
Compression mode : Lossy
Stream size : 116 MiB (4%)
Title : DniproFilm
Language : Ukrainian
Service kind : Complete Main
Default : No
Forced : No

Audio #3
ID : 4
Format : AC-3
Format/Info : Audio Coding 3
Commercial name : Dolby Digital
Codec ID : A_AC3
Duration : 42 min 7 s
Bit rate mode : Constant
Bit rate : 192 kb/s
Channel(s) : 2 channels
Channel layout : L R
Sampling rate : 48.0 kHz
Frame rate : 31.250 FPS (1536 SPF)
Compression mode : Lossy
Stream size : 57.8 MiB (2%)
Title : AniUA
Language : Ukrainian
Service kind : Complete Main
Default : No
Forced : No

Audio #4
ID : 5
Format : E-AC-3
Format/Info : Enhanced AC-3
Commercial name : Dolby Digital Plus
Codec ID : A_EAC3
Duration : 42 min 7 s
Bit rate mode : Constant
Bit rate : 640 kb/s
Channel(s) : 6 channels
Channel layout : L R C LFE Ls Rs
Sampling rate : 48.0 kHz
Frame rate : 31.250 FPS (1536 SPF)
Compression mode : Lossy
Stream size : 193 MiB (6%)
Language : English
Service kind : Complete Main
Default : No
Forced : No

Text
ID : 6
Format : UTF-8
Codec ID : S_TEXT/UTF8
Codec ID/Info : UTF-8 Plain Text
Duration : 41 min 40 s
Bit rate : 58 b/s
Count of elements : 790
Stream size : 17.9 KiB (0%)
Language : English
Default : No
Forced : No
Скріншоти

Другу аудіодоріжку взято з родачі https://toloka.to/t98583

Джерело: &
Особиста оцінка: 0 - не дивився





Авторський реліз (завантажувати можна без реєстрації)
 Трекер:    Зареєстрований   

Завантажити / скачати серіал українською



відео для новачків



 Зареєстрований:   2020-03-26 21:56
 Розмір:   47.18 GB 
 Оцінка серіалу:   10/10 (Голосів: 2)
   
don pedro 
Попереджень: 1
Попереджень: 1 


З нами з: 29.06.11
Востаннє: 03.04.20
Повідомлень: 16220

2020-03-26 23:21  
Дивовижно: для безлічі неймовірних серіалів відсутня навіть одне озвучення, а для новенької і цілком посередньої "Сирени" склепали цілих три!
Anonymous 







2020-03-26 23:26  
don pedro
І не кажіть... Та ж фігня з Чорнобилем і Справжнім детективом. Але тут хоч груповуха є, хоч якось інтерес виправдовується Wink (1).

don pedro 
Попереджень: 1
Попереджень: 1 


З нами з: 29.06.11
Востаннє: 03.04.20
Повідомлень: 16220

2020-03-26 23:30  
Anonymous
Ще для "Шерлока", "Ксени" і для "Гри престолів" є декілька озвучень. Можливо, ще для чогось ("Клініка", "Доктор Хаус").
Але це ще нічого. Справді погане це те, що втрачені чудові озвучення для старих серіалів. Зокрема, їх немає для класичного поліційного серіалу "Блюзи Гілл-Стріт" та дитячої "Каруселі".

Ваш часовий пояс: GMT + 2 Години

Нова тема   Відповісти