Мені не подобається біль, тому качатиму тільки захист (Сезон 1, серії 5 з 12) / Itai no wa Iya nano de Bougyoryoku ni Kyokufuri Shitai to Omoimasu (2020) 720p

Нові коментарі

Нова тема   Відповісти
Автор Повідомлення
UFDUB_TR 
Новенький


З нами з: 08.02.20
Востаннє: 03.04.20
Повідомлень: 24

2020-03-26 17:56  
Мені не подобається біль, тому качатиму тільки захист (Сезон 1, серії 5 з 12) / Itai no wa Iya nano de Bougyoryoku ni Kyokufuri Shitai to Omoimasu (2020) 720p




Країна:Японія
Рік виходу: 2020



Жанри: Бойові мистества, Пригоди, Фантастика
Кількість серій: 12 (~24 хв)
Режисер: Сін Онума, Мірай Мінато
Студія:Silver LINK


Опис:
Якщо коротко: Одну дівчинку вмовила подруга зіграти в онлайн-гру. І та почала саменька свій шлях. Не знаючи багатьох нюансів, її чекає цікавий шлях геймера


Якість:
Відео:
кодек:
розмір кадру: 1280 х 720
бітрейт: 3 356 кб/с

Аудіо:
мова: українська
переклад: Багатоголосий закадровий
кодек: 2.0
бітрейт: 128 кб/с


Переклад та озвучення виконано:
Переклад: K0wbassa
Ролі озвучили: VOLCUA, irennneri, Hoshi, Ayla, Rainy984, Maxx_light, Reniko, Dark_Moon
Робота зі звуком:VOLCUA
Студія: UFDUB.com
Постер: K0wbassa

Тех. деталі ^_^

General
Complete name : D:\UFDUB\UFDUB_TORRENT\1873\[UFDUB_com] Не люблю біль тому все вкачаю у захист\[UFDUB_com] Не люблю біль тому все вкачаю у захист - Серія 1.mp4
Format : MPEG-4
Format profile : Base Media
Codec ID : isom (isom/iso2/avc1/mp41)
File size : 574 MiB
Duration : 23 min 53 s
Overall bit rate mode : Variable
Overall bit rate : 3 356 kb/s
Writing application : Lavf58.39.101

Video
ID : 1
Format : AVC
Format/Info : Advanced Video Codec
Format profile : [email protected]
Format settings : CABAC / 4 Ref Frames
Format settings, CABAC : Yes
Format settings, Reference : 4 frames
Codec ID : avc1
Codec ID/Info : Advanced Video Coding
Duration : 23 min 50 s
Bit rate : 3 230 kb/s
Nominal bit rate : 3 500 kb/s
Width : 1 280 pixels
Height : 720 pixels
Display aspect ratio : 16:9
Frame rate mode : Variable
Frame rate : 23.976 FPS
Minimum frame rate : 23.564 FPS
Maximum frame rate : 24.390 FPS
Color space : YUV
Chroma subsampling : 4:2:0
Bit depth : 8 bits
Scan type : Progressive
Bits/(Pixel*Frame) : 0.146
Stream size : 551 MiB (96%)
Writing library : core 157 r2948 dada181
Encoding settings : cabac=1 / ref=1 / deblock=1:0:0 / analyse=0x1:0x111 / me=hex / subme=7 / psy=1 / psy_rd=1.00:0.00 / mixed_ref=0 / me_range=16 / chroma_me=1 / trellis=1 / 8x8dct=0 / cqm=0 / deadzone=21,11 / fast_pskip=1 / chroma_qp_offset=-2 / threads=22 / lookahead_threads=3 / sliced_threads=0 / nr=0 / decimate=1 / interlaced=0 / bluray_compat=0 / constrained_intra=0 / bframes=2 / b_pyramid=2 / b_adapt=1 / b_bias=0 / direct=1 / weightb=1 / open_gop=0 / weightp=2 / keyint=48 / keyint_min=4 / scenecut=40 / intra_refresh=0 / rc_lookahead=40 / rc=cbr / mbtree=1 / bitrate=3500 / ratetol=1.0 / qcomp=0.60 / qpmin=0 / qpmax=69 / qpstep=4 / vbv_maxrate=3500 / vbv_bufsize=10500 / nal_hrd=none / filler=0 / ip_ratio=1.40 / aq=1:1.00
mdhd_Duration : 1430096
Codec configuration box : avcC

Audio
ID : 2
Format : LC
Format/Info : Advanced Audio Codec Low Complexity
Codec ID : mp4a-40-2
Duration : 23 min 53 s
Bit rate mode : Variable
Bit rate : 128 kb/s
Channel(s) : 2 channels
Channel layout : L R
Sampling rate : 44.1 kHz
Frame rate : 43.066 FPS (1024 SPF)
Compression mode : Lossy
Stream size : 21.8 MiB (4%)
Default : Yes
Alternate group : 1
Список серій

Серія 1 - Захист і перший бій
Серія 2 - Захист і друзі
Серія 3 - Звхист і другий Етап
Серія 4 - Захист і другий івент
Серія 5 - Захист і бойові трофеї

Серія 6 - Захист і повернення
Серія 7 -
Серія 8 -
Серія 9 -
Серія 10 -
Серія 11 -
Серія 12 -


Скріншоти


Завантажили? - Роздавай! Просимо, не йдіть з роздачі!




Авторський реліз (завантажувати можна без реєстрації)
 Трекер:    Зареєстрований   

Завантажити / скачати аніме українською



відео для новачків



 Зареєстрований:   2020-03-26 17:56
 Розмір:   2.03 GB 
 Оцінка аніме:   10/10 (Голосів: 2)
   
WXevaovm 
Частий відвідувач


З нами з: 11.02.17
Востаннє: 03.04.20
Повідомлень: 27

2020-03-26 18:10  
Ой леле, знову онлайн-гра!

Цитата:
Жанри: Реліз

Що це за жанр такий?

UFDUB_TR 
Новенький


З нами з: 08.02.20
Востаннє: 03.04.20
Повідомлень: 24

2020-03-26 22:33  
WXevaovm написано:
Що це за жанр такий?

Унікальний))

Вже виправили, а ви пане WXevaovm, нічого не бачили
тссссс.....

WXevaovm 
Частий відвідувач


З нами з: 11.02.17
Востаннє: 03.04.20
Повідомлень: 27

2020-03-26 23:38  
Що ж, не так вже й погано. Серіал явно розрахований на дівчаток молодшого, максимум середнього, шкільного віку, всім іншим тут нічого ловити. Другого шару для батьків тут теж немає. Але оскільки з озвученими аніме для цієї категорії сутужно, то все ж завантажу, згодиться.

Успіхів новій команді!

Iridium 
Свій


З нами з: 20.12.09
Востаннє: 03.04.20
Повідомлень: 66

2020-03-27 00:00  
на постері і в роздачі різні варіанти назви, плюс є ще одна роздача з третій варіантом, вже б визначились Happy
Ваш часовий пояс: GMT + 2 Години

Нова тема   Відповісти