1917 / 1917 (2019) 1080p Ukr/Eng | Sub Eng

Нові коментарі

Нова тема   Відповісти
Автор Повідомлення
Anonymous 







2020-03-26 17:32  
1917 / 1917 (2019) 1080p Ukr/Eng | Sub Eng

1917 / 1917 (2019) 1080p Ukr/Eng | Sub Eng


Альтернативний постер


Країна: США, Велика Британія, Індія, Іспанія, Канада

Top Rated Movies #73





Кінокомпанія: DreamWorks, Reliance Entertainment, New Republic Pictures
Режисер: Сем Мендес (Sam Mendes)
Актори: Дін-Чарльз Чепмен (Dean-Charles Chapman), Джордж МакКей (George MacKay), Ендрю Скотт (Andrew Scott), Колін Ферт (Colin Firth), Деніел Мейс (Daniel Mays), Марк Стронґ (Mark Strong), Річард Медден (Richard Madden), Бенедикт Камбербетч (Benedict Cumberbatch) та інші.

Сюжет:
1917 рік, Перша світова війна поки й не думає закінчуватися. У воєнний час на прийняття рішення у вас рідко є години або хоча би хвилини – часом Вам потрібно щось зробити в лічені секунди. Двом молодим солдатам, Шоффілду і Блейку, потрібно зробити неможливе – прорватися крізь ворожу територію, щоб попередити інший батальйон про пастку, у яку вони йдуть. Це по-справжньому смертельна місія, але тільки від цих двох хлопців залежить доля 1600 солдатів. І найбільше Блейк хоче врятувати свого брата, який як раз може загинути в тій пастці. Вони будуть багато ризикувати своїми життями, адже час зовсім не на їхньому боці.


Тривалість: 01:58:58
Якість: 1080p
Відео:
кодек:
розмір кадру: 1920x802
бітрейт: 13765 кб/с

Аудіо # 1:
мова: українська
переклад: професійний дубльований
кодек: 2.0
бітрейт: 192 кб/с

Аудіо # 2:
мова: англійська
переклад: оригінал
кодек: 5.1
бітрейт: 640 кб/с

Субтитри # 1 : (Forced)
мова: українська
тип: програмні (м'які)
формат: *.srt

Субтитри #2 - 3 : (Full, SDH)
мова: англійська
тип: програмні (м'які)
формат: *.srt

Info
Код:
General
Complete name                            : 1917 (2019) 1080p [Ukr, Eng] [Video_Hurtom].
Format                                   :
Format version                           : Version 4
File size                                : 12.1 GiB
Duration                                 : 1 h 58 min
Overall bit rate                         : 14.6 Mb/s
Movie name                               : 1917 (2019)
Encoded date                             : UTC 2020-03-26 13:54:59
Writing application                      : v30.1.0 ('Forever And More') 64-bit
Writing library                          : libebml v1.3.6 + v1.4.9
Cover                                    : Yes
Attachments                              : cover.jpg

Video
ID                                       : 1
Format                                   : AVC
Format/Info                              : Advanced Video Codec
Format profile                           : [email protected]
Format settings                          : CABAC / 5 Ref Frames
Format settings, CABAC                   : Yes
Format settings, RefFrames               : 5 frames
Codec ID                                 : V_MPEG4/ISO/AVC
Duration                                 : 1 h 58 min
Bit rate                                 : 13.8 Mb/s
Width                                    : 1 920 pixels
Height                                   : 802 pixels
Display aspect ratio                     : 2.40:1
Frame rate mode                          : Constant
Frame rate                               : 23.976 (24000/1001) FPS
Color space                              : YUV
Chroma subsampling                       : 4:2:0
Bit depth                                : 8 bits
Scan type                                : Progressive
Bits/(Pixel*Frame)                       : 0.373
Stream size                              : 11.4 GiB (94%)
Title                                    : Encoded by seleZen
Writing library                          : core 142 r2431+42 c69a006 tMod [[email protected] X86_64]
Encoding settings                        : cabac=1 / ref=5 / deblock=1:-2:-2 / analyse=0x3:0x133 / me=umh / subme=10 / psy=1 / fade_compensate=0.00 / psy_rd=1.00:0.00 / mixed_ref=1 / me_range=32 / chroma_me=1 / trellis=2 / 8x8dct=1 / cqm=0 / deadzone=21,11 / fast_pskip=0 / chroma_qp_offset=-2 / threads=24 / lookahead_threads=4 / sliced_threads=0 / nr=0 / decimate=0 / interlaced=0 / bluray_compat=0 / constrained_intra=0 / fgo=0 / bframes=8 / b_pyramid=2 / b_adapt=2 / b_bias=0 / direct=3 / weightb=1 / open_gop=0 / weightp=2 / keyint=240 / keyint_min=23 / scenecut=40 / intra_refresh=0 / rc_lookahead=50 / rc=2pass / mbtree=0 / bitrate=13765 / ratetol=1.0 / qcomp=0.60 / qpmin=0:0:0 / qpmax=51:51:51 / qpstep=4 / cplxblur=20.0 / qblur=0.5 / vbv_maxrate=50000 / vbv_bufsize=62500 / nal_hrd=none / filler=0 / ip_ratio=1.40 / pb_ratio=1.30 / aq=3:0.80 / aq-sensitivity=10.00 / aq-factor=1.00:1.00:1.00 / aq2=0 / aq3=0
Language                                 : English
Default                                  : Yes
Forced                                   : No

Audio #1
ID                                       : 2
Format                                   : AC-3
Format/Info                              : Audio Coding 3
Commercial name                          : Dolby Digital
Codec ID                                 : A_AC3
Duration                                 : 1 h 58 min
Bit rate mode                            : Constant
Bit rate                                 : 192 kb/s
Channel(s)                               : 2 channels
Channel layout                           : L R
Sampling rate                            : 48.0 kHz
Frame rate                               : 31.250 FPS (1536 SPF)
Bit depth                                : 16 bits
Compression mode                         : Lossy
Stream size                              : 163 MiB (1%)
Title                                    : 2.0 | 192
Language                                 : Ukrainian
Service kind                             : Complete Main
Default                                  : Yes
Forced                                   : No

Audio #2
ID                                       : 3
Format                                   : AC-3
Format/Info                              : Audio Coding 3
Commercial name                          : Dolby Digital
Codec ID                                 : A_AC3
Duration                                 : 1 h 58 min
Bit rate mode                            : Constant
Bit rate                                 : 640 kb/s
Channel(s)                               : 6 channels
Channel layout                           : L R C LFE Ls Rs
Sampling rate                            : 48.0 kHz
Frame rate                               : 31.250 FPS (1536 SPF)
Bit depth                                : 16 bits
Compression mode                         : Lossy
Stream size                              : 545 MiB (4%)
Title                                    : 5.1 | 640
Language                                 : English
Service kind                             : Complete Main
Default                                  : No
Forced                                   : No

Text #1
ID                                       : 4
Format                                   : UTF-8
Codec ID                                 : S_TEXT/UTF8
Codec ID/Info                            : UTF-8 Plain Text
Duration                                 : 1 h 31 min
Bit rate                                 : 2 b/s
Count of elements                        : 25
Stream size                              : 1.36 KiB (0%)
Title                                    : Forced
Language                                 : Ukrainian
Default                                  : Yes
Forced                                   : No

Text #2
ID                                       : 5
Format                                   : UTF-8
Codec ID                                 : S_TEXT/UTF8
Codec ID/Info                            : UTF-8 Plain Text
Duration                                 : 1 h 45 min
Bit rate                                 : 35 b/s
Count of elements                        : 937
Stream size                              : 27.1 KiB (0%)
Title                                    : Full
Language                                 : English
Default                                  : No
Forced                                   : No

Text #3
ID                                       : 6
Format                                   : UTF-8
Codec ID                                 : S_TEXT/UTF8
Codec ID/Info                            : UTF-8 Plain Text
Duration                                 : 1 h 45 min
Bit rate                                 : 40 b/s
Count of elements                        : 1100
Stream size                              : 31.2 KiB (0%)
Title                                    : SDH
Language                                 : English
Default                                  : No
Forced                                   : No

Menu
00:00:00.000                             : en:Chapter 01
00:04:59.424                             : en:Chapter 02
00:08:19.374                             : en:Chapter 03
00:13:26.639                             : en:Chapter 04
00:16:38.789                             : en:Chapter 05
00:23:32.494                             : en:Chapter 06
00:30:28.660                             : en:Chapter 07
00:35:34.549                             : en:Chapter 08
00:42:25.376                             : en:Chapter 09
00:51:34.091                             : en:Chapter 10
00:56:36.310                             : en:Chapter 11
01:02:29.079                             : en:Chapter 12
01:06:33.573                             : en:Chapter 13
01:12:04.320                             : en:Chapter 14
01:19:45.197                             : en:Chapter 15
01:28:47.822                             : en:Chapter 16
01:33:43.451                             : en:Chapter 17
01:38:11.594                             : en:Chapter 18
01:41:43.681                             : en:Chapter 19
01:49:46.580                             : en:Chapter 20
Cкріншоти




Подяка за аудіо: Jatx_11
Джерело:
Особиста оцінка: 6 - третій сорт - не брак


 Трекер:    Зареєстрований   

Завантажити / скачати фільм українською



відео для новачків



 Зареєстрований:   2020-03-26 17:32
 Розмір:   12.13 GB 
 Оцінка фільму:   9.5/10 (Голосів: 54)
   
Інші релізи
   1917 / 1917 (2019) 1080p H.265 HDR Ukr/Eng | Sub Eng -Star-Lord-  45 / 7   12.04 GB   2020-03-30 13:49 
   1917 / 1917 (2019) UHD Remux 4K 2160p Ukr/Eng | Sub Eng antik_2008  74 / 4   62.19 GB   2020-03-26 23:12 
   1917 / 1917 (2019) Remux 1080p Ukr/Eng | Sub Eng MakRA  71 / 3   32.24 GB   2020-03-26 23:01 
   1917 / 1917 (2019) Ukr/Eng antik_2008  224 / 4   1.99 GB   2020-03-26 18:58 
   1917 / 1917 (2019) 720p Ukr/Eng | Sub Eng 11FrYkT  230 / 6   5.52 GB   2020-03-26 18:53 
   1917 / 1917 (2019) AVC Ukr/Eng | sub Eng Jatx_11  497 / 5   2.13 GB   2020-03-26 15:39 
Lyolic 
VIP


З нами з: 04.08.09
Востаннє: 03.04.20
Повідомлень: 466

2020-03-26 19:08  
Anonymous написано:
Країна: США, Великобританія, Індія, Іспанія, Канада

Кацапізми - наше всьо )))

bodik10 
Новенький


З нами з: 15.11.08
Востаннє: 03.04.20
Повідомлень: 1

2020-03-26 19:45  
Цитата:
Особиста оцінка: 6 - третій сорт - не брак

Обґрунтуйте Happy

Avionix 
Новенький


З нами з: 16.06.19
Востаннє: 31.03.20
Повідомлень: 9

2020-03-27 10:34  
Якість звуку планується стати краще, чи це межа для торренту?
Anonymous 







2020-03-27 12:22  
Avionix написано:
Якість звуку планується стати краще, чи це межа для торренту?


тут і так гарний звук
https://toloka.to/t108952

zdlr 
Свій


З нами з: 07.12.12
Востаннє: 03.04.20
Повідомлень: 71

2020-03-28 00:37  
Сподобався фільм.
yourgrin 
Новенький


З нами з: 05.03.14
Востаннє: 03.04.20
Повідомлень: 16

2020-03-28 11:28  
Фільм вартий уваги!
zyklon_b 
Новенький


З нами з: 20.11.08
Востаннє: 03.04.20
Повідомлень: 3

2020-03-30 23:46  
Більш ніж посередній фільм, найперше - за рахунок неймовірно слабкого сценарію та нелогічного сюжету. Хоча, якщо в кіно вас цікавить виключно картинка, то кіно може й зайти
Ваш часовий пояс: GMT + 2 Години

Нова тема   Відповісти