Історія іграшок: Життя лампи / Toy Story: Lamp Life (2020) 720p Ukr/Eng | Sub Ukr/Eng

Нові коментарі

Нова тема   Відповісти
Автор Повідомлення
Anonymous 







2020-03-26 15:44  
Життя лампи / Lamp Life (2020) 720p Ukr/Eng | Sub Ukr/Eng



Подяка за постер : mrgalser




Жанр: мультфільм, короткометражний, фентезі, сімейний
Країна: США



Кінокомпанія: Pixar Animation Studios, Walt Disney Pictures
Режисер: Валері Лапойнт
Ролі озвучують: Крістіна Хендрікс, Енні Поттс, Джим Хенкс, Емілі Девіс, Керрі Пафф

Сюжет:
Історія присвячена пригодам порцелянової ляльки Бо Піп.!


Тривалість: 00:07:11
Якість: 720p

Відео:
кодек:
розмір кадру: 1280 x 720
бітрейт: ~4252 кб/с

Аудіо # 1:
мова: українська
переклад: багатоголосий закадровий
кодек: 2.0
бітрейт: 192 кб/с

Цитата:

Подяка за роботу:
Переклад і субтитри: Вояка Schweik
Ролі озвучували: Chewey та Lem0nka
Робота зі звуком: Chewey

Спільна робота: Quam project та Dzuski.com та вільних стрільців
Подяка

Аудіо # 2:
мова: англійська
переклад: оригінал
кодек: 5.1
бітрейт: 448 кб/с

Субтитри (Forced):
мова: українська
тип: програмні (м'які)
формат: *.srt
примітка 1: переклад Вояка Schweik
[i]примітка 2:
також присутні окремим файлом для сумісності з деякими пристроями

Субтитри (Full):
мова: українська
тип: програмні (м'які)
формат: *.srt
примітка 1: переклад Вояка Schweik
[i]примітка 2:
також присутні окремим файлом для сумісності з деякими пристроями

Субтитри (Full):
мова: англійська
тип: програмні (м'які)
формат: *.srt
МедіаІнфо
Код:
General
Complete name                            : Lamp Life (2020) 720p [Ukr, Eng] (Chewey, Lem0nka) [Hurtom].
Format                                   :
Format version                           : Version 4
File size                                : 252 MiB
Duration                                 : 7 min 11 s
Overall bit rate mode                    : Variable
Overall bit rate                         : 4 898 kb/s
Movie name                               : Життя лампи / Lamp Life (2019)
Encoded date                             : UTC 2020-03-26 13:19:41
Writing application                      : v30.1.0 ('Forever And More') 64-bit
Writing library                          : libebml v1.3.6 + v1.4.9
Cover                                    : Yes
Attachments                              : cover.jpg

Video
ID                                       : 1
Format                                   : AVC
Format/Info                              : Advanced Video Codec
Format profile                           : [email protected]
Format settings                          : CABAC / 4 Ref Frames
Format settings, CABAC                   : Yes
Format settings, RefFrames               : 4 frames
Codec ID                                 : V_MPEG4/ISO/AVC
Duration                                 : 7 min 11 s
Bit rate mode                            : Variable
Bit rate                                 : 4 252 kb/s
Maximum bit rate                         : 6 375 kb/s
Width                                    : 1 280 pixels
Height                                   : 720 pixels
Display aspect ratio                     : 16:9
Frame rate mode                          : Constant
Frame rate                               : 23.976 (24000/1001) FPS
Color space                              : YUV
Chroma subsampling                       : 4:2:0
Bit depth                                : 8 bits
Scan type                                : Progressive
Bits/(Pixel*Frame)                       : 0.192
Stream size                              : 219 MiB (87%)
Language                                 : English
Default                                  : Yes
Forced                                   : No
Color range                              : Limited
Color primaries                          : BT.709
Transfer characteristics                 : BT.709
Matrix coefficients                      : BT.709

Audio #1
ID                                       : 2
Format                                   : AC-3
Format/Info                              : Audio Coding 3
Commercial name                          : Dolby Digital
Codec ID                                 : A_AC3
Duration                                 : 7 min 11 s
Bit rate mode                            : Constant
Bit rate                                 : 192 kb/s
Channel(s)                               : 2 channels
Channel layout                           : L R
Sampling rate                            : 48.0 kHz
Frame rate                               : 31.250 FPS (1536 SPF)
Bit depth                                : 16 bits
Compression mode                         : Lossy
Stream size                              : 9.88 MiB (4%)
Title                                    : Українська AC-3 2.0 192кб (Chewey, Lem0nka)
Language                                 : Ukrainian
Service kind                             : Complete Main
Default                                  : Yes
Forced                                   : Yes

Audio #2
ID                                       : 3
Format                                   : AC-3
Format/Info                              : Audio Coding 3
Commercial name                          : Dolby Digital
Codec ID                                 : A_AC3
Duration                                 : 7 min 11 s
Bit rate mode                            : Constant
Bit rate                                 : 448 kb/s
Channel(s)                               : 6 channels
Channel layout                           : L R C LFE Ls Rs
Sampling rate                            : 48.0 kHz
Frame rate                               : 31.250 FPS (1536 SPF)
Bit depth                                : 16 bits
Compression mode                         : Lossy
Stream size                              : 23.0 MiB (9%)
Title                                    : English AC-3, 5.1 448 kbps
Language                                 : English
Service kind                             : Complete Main
Default                                  : No
Forced                                   : No

Text #1
ID                                       : 4
Format                                   : UTF-8
Codec ID                                 : S_TEXT/UTF8
Codec ID/Info                            : UTF-8 Plain Text
Duration                                 : 2 min 57 s
Bit rate                                 : 4 b/s
Count of elements                        : 3
Stream size                              : 103 Bytes (0%)
Title                                    : Написи (Вояка Schweik)
Language                                 : Ukrainian
Default                                  : Yes
Forced                                   : Yes

Text #2
ID                                       : 5
Format                                   : UTF-8
Codec ID                                 : S_TEXT/UTF8
Codec ID/Info                            : UTF-8 Plain Text
Duration                                 : 6 min 25 s
Bit rate                                 : 106 b/s
Count of elements                        : 111
Stream size                              : 5.00 KiB (0%)
Title                                    : Повні (Вояка Schweik)
Language                                 : Ukrainian
Default                                  : No
Forced                                   : No

Text #3
ID                                       : 6
Format                                   : UTF-8
Codec ID                                 : S_TEXT/UTF8
Codec ID/Info                            : UTF-8 Plain Text
Duration                                 : 6 min 35 s
Bit rate                                 : 94 b/s
Count of elements                        : 147
Stream size                              : 4.58 KiB (0%)
Title                                    : Повні
Language                                 : English
Default                                  : No
Forced                                   : No
Скріншоти


Джерело:
Особиста оцінка: 10 - без зайвих вагань рекомендую всім!



Авторський реліз (завантажувати можна без реєстрації)
 Трекер:    Зареєстрований   

Завантажити / скачати фільм українською



відео для новачків



 Зареєстрований:   2020-03-26 15:44
 Розмір:   252 MB 
 Оцінка фільму:   10/10 (Голосів: 10)
   
bogdan8249 
Відео Гуртом - фільмокрай
Відео Гуртом - фільмокрай


З нами з: 09.08.08
Востаннє: 26.11.20
Повідомлень: 1235

2020-03-26 22:28  
Цитата:
Lamp Life (2019)

2020

eXteSy- 
VIP


З нами з: 06.04.09
Востаннє: 01.12.20
Повідомлень: 2216

2020-04-06 22:12  
Короткометражка ні про що. Головна ідея вже не раз озвучувалася в мультах основної франшизи, гумору обмаль. Подивитись і забути.
5/10

Ваш часовий пояс: GMT + 2 Години

Нова тема   Відповісти