Зараження / Carriers (2009) 1080p Ukr/Eng | Sub Eng

Нові коментарі

Нова тема   Відповісти
Автор Повідомлення
MakRA 
VIP


З нами з: 11.11.18
Востаннє: 30.03.20
Повідомлень: 934

2020-03-26 04:41  
Зараження / Carriers (2009) 1080p Ukr/Eng | Sub Eng


Альтернативні обкладинки:


Жанр: трилер, драма, пригодницький
Країна: США



Кінокомпанія: Paramount Vantage
Режисер: Девід Пастор [David Pastor], Алекс Пастор [Alex Pastor]
Актори: Кріс Пайн [Chris Pine], Лу Тейлор Пуччі [Lou Taylor Pucci], Пайпер Перабо [Piper Perabo], Емілі ВанКемп [Emily VanCamp], Крістофер Мелоні [Christopher Meloni], Кірнан Шипка [Kiernan Shipka], Рон МакКлері [Ron McClary], Марк Мозес [Mark Moses], Джош Беррі [Josh Berry], Тім Дженіс [Tim Janis], Дейл Меллі [Dale Malley], Ділан Кенін [Dylan Kenin], Лінн Лінч [LeAnne Lynch], Джен Каннінґем [Jan Cunningham], Мері Петерсон [Mary Peterson]

Сюжет:
Жахлива інфекція вирвалася в світ. Вбиваючи людей у страшних муках, вона моментально й глобально поширилася повітряно-крапельним шляхом серед людей. Четверо друзів опинилися захоплені цією епідемією в дорозі. Постійне пересування стало для них єдиним шляхом на порятунок. Уникаючи контактів, вони прагнуть покинути заражену територію, але чи вдасться їм вижити?..


Тривалість: 01:24:31
Якість: 1080p [ріп від CHD]
Відео:
кодек:
розмір кадру: 1920x804
бітрейт: 13,2 Мб/с

Аудіо # 1:
мова: українська
переклад: багатоголосий закадровий
кодек: 2.0
бітрейт: 192 кб/с

Аудіо # 2:
мова: англійська
переклад: оригінал
кодек: 5.1
бітрейт: 1509 кб/с

Аудіо # 3:
мова: англійська
переклад: оригінал
кодек: 2.0
бітрейт: 192 кб/с

Субтитри:
мова: англійська
тип: програмні (м'які)
формат: *.srt

Збережено оригінальні розділи, як на Blu-ray.
Info
General
Unique ID : 181539145469629115030694893130057950803 (0x88932AEA0D3102A31B78940D3A8EA653)
Complete name : I:\+ Фільми в HD\жахи, детектив, трилер\Carriers (2009) 1080p UkrEng Sub Eng [Hurtom].
Format :
Format version : Version 4
File size : 8.93 GiB
Duration : 1 h 24 min
Overall bit rate : 15.1 Mb/s
Movie name : Зараження / Carriers (2009) 1080p Ukr/Eng | Sub Eng [Hurtom]
Encoded date : UTC 2020-03-26 01:30:39
Writing application : v25.0.0 ('Prog Noir') 64-bit
Writing library : libebml v1.3.6 + v1.4.9
Cover : Yes
Attachments : cover.jpg

Video
ID : 1
Format : AVC
Format/Info : Advanced Video Codec
Format profile : [email protected]
Format settings : CABAC / 5 Ref Frames
Format settings, CABAC : Yes
Format settings, Reference fra : 5 frames
Codec ID : V_MPEG4/ISO/AVC
Duration : 1 h 24 min
Bit rate : 13.2 Mb/s
Width : 1 920 pixels
Height : 804 pixels
Display aspect ratio : 2.40:1
Frame rate mode : Constant
Frame rate : 24.000 FPS
Color space : YUV
Chroma subsampling : 4:2:0
Bit depth : 8 bits
Scan type : Progressive
Bits/(Pixel*Frame) : 0.357
Stream size : 7.81 GiB (87%)
Title : Carriers (2009) 1080p Ukr/Eng | Sub Eng [Hurtom]
Writing library : core 80 r1373 4322f63
Encoding settings : cabac=1 / ref=5 / deblock=1:-3:-3 / analyse=0x3:0x113 / me=umh / subme=9 / psy=1 / psy_rd=1.0:0.1 / mixed_ref=1 / me_range=32 / chroma_me=1 / trellis=2 / 8x8dct=1 / cqm=2 / deadzone=21,11 / fast_pskip=0 / chroma_qp_offset=-2 / threads=12 / sliced_threads=0 / nr=0 / decimate=1 / mbaff=0 / constrained_intra=0 / bframes=3 / b_pyramid=2 / b_adapt=2 / b_bias=0 / direct=3 / wpredb=1 / wpredp=2 / keyint=250 / keyint_min=25 / scenecut=40 / rc_lookahead=50 / rc=2pass / mbtree=1 / bitrate=13226 / ratetol=2.0 / qcomp=0.70 / qpmin=10 / qpmax=51 / qpstep=4 / cplxblur=20.0 / qblur=0.5 / vbv_maxrate=50000 / vbv_bufsize=50000 / ip_ratio=1.40 / aq=1:1.00
Language : Ukrainian
Default : Yes
Forced : Yes

Audio #1
ID : 2
Format : AC-3
Format/Info : Audio Coding 3
Commercial name : Dolby Digital
Codec ID : A_AC3
Duration : 1 h 24 min
Bit rate mode : Constant
Bit rate : 192 kb/s
Channel(s) : 2 channels
Channel layout : L R
Sampling rate : 48.0 kHz
Frame rate : 31.250 FPS (1536 SPF)
Compression mode : Lossy
Stream size : 116 MiB (1%)
Title : MVO [НТН] 2.0
Language : Ukrainian
Service kind : Complete Main
Default : Yes
Forced : Yes

Audio #2
ID : 3
Format :
Format/Info : Digital Theater Systems
Codec ID : A_DTS
Duration : 1 h 24 min
Bit rate mode : Constant
Bit rate : 1 509 kb/s
Channel(s) : 6 channels
Channel layout : C L R Ls Rs LFE
Sampling rate : 48.0 kHz
Frame rate : 93.750 FPS (512 SPF)
Bit depth : 24 bits
Compression mode : Lossy
Stream size : 915 MiB (10%)
Title : Original 5.1
Language : English
Default : No
Forced : No

Audio #3
ID : 4
Format : AC-3
Format/Info : Audio Coding 3
Commercial name : Dolby Digital
Codec ID : A_AC3
Duration : 1 h 24 min
Bit rate mode : Constant
Bit rate : 192 kb/s
Channel(s) : 2 channels
Channel layout : L R
Sampling rate : 48.0 kHz
Frame rate : 31.250 FPS (1536 SPF)
Compression mode : Lossy
Stream size : 116 MiB (1%)
Title : Original 2.0
Language : English
Service kind : Complete Main
Default : No
Forced : No

Text
ID : 5
Format : UTF-8
Codec ID : S_TEXT/UTF8
Codec ID/Info : UTF-8 Plain Text
Duration : 1 h 18 min
Bit rate : 39 b/s
Count of elements : 668
Stream size : 22.6 KiB (0%)
Title : Eng (Full)
Language : English
Default : No
Forced : No

Menu
00:07:12.389 : en:00:07:11.958
00:13:02.865 : en:00:13:02.083
00:18:57.261 : en:00:18:56.125
00:28:16.360 : en:00:28:14.666
00:31:52.368 : en:00:31:50.458
00:37:28.996 : en:00:37:26.750
00:43:46.289 : en:00:43:43.666
00:49:59.954 : en:00:49:56.958
00:56:29.636 : en:00:56:26.250
01:02:24.824 : en:01:02:21.083
01:09:05.349 : en:01:09:01.208
01:14:51.277 : en:01:14:46.791
01:19:28.221 : en:01:19:23.458
01:21:13.701 : en:01:21:08.833
Скріншоти
Джерело: &
Подяка п. НТН за готову українську доріжку
Особиста оцінка: 9 - давно не бачив настільки якісне кіно


 Трекер:    Зареєстрований   

Завантажити / скачати фільм українською



відео для новачків



 Зареєстрований:   2020-03-26 04:41
 Розмір:   8.93 GB 
 Оцінка фільму:   8.8/10 (Голосів: 8)
   
Інші релізи
   Зараження / Carriers (2009) 720p Ukr/Eng | Sub Eng MakRA  16 / 0   4.58 GB   2020-03-27 01:24 
   Зараження / Carriers (2009) Remux 1080p Ukr/Eng | Sub Eng MakRA  11 / 1   17.6 GB   2020-03-27 00:31 
   Зараження / Carriers (2009) 720p Ukr/Eng | Sub Ukr/Eng/Spa DеLight  0 / 5   4.37 GB   2012-08-30 18:09 
   Зараження / Carriers (2009) Ukr/Eng НТН  58 / 1   1.46 GB   2012-07-17 22:24 
igor911 
Модератор відео


З нами з: 18.01.08
Востаннє: 30.03.20
Повідомлень: 14324

2020-03-26 09:35  
MakRA, українські субтитри з https://toloka.to/t39297 не вдалось відшукати? Писав їх автору в приват?
MakRA 
VIP


З нами з: 11.11.18
Востаннє: 30.03.20
Повідомлень: 934

2020-03-26 09:51  
igor911
Не знайшов ніде, писав раніше, сьогодні ще раз написав. Поки що зачекаю відповіді.

Ваш часовий пояс: GMT + 2 Години

Нова тема   Відповісти