Страх над містом / Peur sur la ville (1975) Remux 1080p Ukr/Fre | Sub Eng

Нові коментарі

Нова тема   Відповісти
Автор Повідомлення
MakRA 
VIP


З нами з: 11.11.18
Востаннє: 19.09.20
Повідомлень: 1114

2020-03-26 02:57  
Страх над містом / Peur sur la ville (1975) Remux 1080p Ukr/Fre | Sub Eng


Український постер:

Альтернативні обкладинки та постери:




Жанр: екшн, трилер, драма
Країна: Франція , Італія



Кінокомпанія: Cerito Films, Mondial Televisione Film
Режисер: Анрі Верней [Henri Verneuil]
Актори: Жан-Поль Бельмондо [Jean-Paul Belmondo], Шарль Денер [Charles Denner], Леа Массарі [Lea Massari], Розі Варт [Rosy Varte], Ролан Дюбілляр [Roland Dubillard], Джованні Чанфрілья [Giovanni Cianfriglia], Катрін Морен [Catherine Morin], Джермана Карначіна [Germana Carnacina]

Сюжет:
Молода самотня вдова Нора Ельмер регулярно приймає телефонні дзвінки від незнайомця, який дає їй зрозуміти, що не тільки добре знає подробиці її особистого життя, але й бував у її квартирі в її відсутність. Одного разу вночі він повідомляє, що збирається зайти до неї. Від страху вона одержує серцевий напад і випадає з вікна своєї квартири, що перебуває на 17- му поверсі.

Розслідування доручається комісарові Жану Летельє...


Тривалість: 02:05:34
Якість: Remux 1080p
Відео:
кодек:
розмір кадру: 1920 х 1080
бітрейт: 20,9 Mб/с

Аудіо # 1:
мова: українська
переклад: двоголосий закадровий
кодек: 2.0
бітрейт: 192 кб/с

Аудіо # 2:
мова: французька
переклад: оригінал
кодек: -HD MA 2.0
бітрейт: 2100 кб/с

Аудіо # 3:
мова: французька
переклад: оригінал
кодек: 2.0
бітрейт: 192 кб/с

Субтитри # 1: (Full)
мова: англійська
тип: програмні (м'які)
формат: *.srt

Субтитри # 2: (Full)
мова: англійська
тип: пререндерні
формат: *.pgs

Збережено оригінальні розділи, як на Blu-ray.
Info
General
Unique ID : 214832519433466731663205303860378206077 (0xA19F3CFC04E53BABA57CDF6A65B7FF7D)
Complete name : E:\+Фільмографії-Жан-Поль Бельмондо [Jean-Paul Belmondo]\Peur sur la ville (1975) Remux 1080p UkrFre Sub Eng [Hurtom].
Format :
Format version : Version 4
File size : 20.5 GiB
Duration : 2 h 5 min
Overall bit rate mode : Variable
Overall bit rate : 23.4 Mb/s
Movie name : Страх над містом / Peur sur la ville (1975) Remux 1080p Ukr/Fre | Sub Eng [Hurtom]
Encoded date : UTC 2020-03-25 18:19:54
Writing application : v25.0.0 ('Prog Noir') 64-bit
Writing library : libebml v1.3.6 + v1.4.9
Cover : Yes
Attachments : cover.jpg

Video
ID : 1
Format : AVC
Format/Info : Advanced Video Codec
Format profile : [email protected]
Format settings : CABAC / 4 Ref Frames
Format settings, CABAC : Yes
Format settings, Reference fra : 4 frames
Codec ID : V_MPEG4/ISO/AVC
Duration : 2 h 5 min
Bit rate mode : Variable
Bit rate : 20.9 Mb/s
Maximum bit rate : 36.0 Mb/s
Width : 1 920 pixels
Height : 1 080 pixels
Display aspect ratio : 16:9
Frame rate mode : Constant
Frame rate : 24.000 FPS
Color space : YUV
Chroma subsampling : 4:2:0
Bit depth : 8 bits
Scan type : Progressive
Bits/(Pixel*Frame) : 0.421
Stream size : 18.4 GiB (89%)
Title : Peur sur la ville (1975) Remux 1080p Ukr/Fre | Sub Eng [Hurtom]
Language : Ukrainian
Default : Yes
Forced : Yes

Audio #1
ID : 2
Format : AC-3
Format/Info : Audio Coding 3
Commercial name : Dolby Digital
Codec ID : A_AC3
Duration : 2 h 5 min
Bit rate mode : Constant
Bit rate : 192 kb/s
Channel(s) : 2 channels
Channel layout : L R
Sampling rate : 48.0 kHz
Frame rate : 31.250 FPS (1536 SPF)
Compression mode : Lossy
Stream size : 172 MiB (1%)
Title : DVO [1+1] [КІНО] 2.0
Language : Ukrainian
Service kind : Complete Main
Default : Yes
Forced : Yes

Audio #2
ID : 3
Format : XLL
Format/Info : Digital Theater Systems
Commercial name : -HD Master Audio
Codec ID : A_DTS
Duration : 2 h 5 min
Bit rate mode : Variable
Bit rate : 2 100 kb/s
Channel(s) : 2 channels
Channel layout : L R
Sampling rate : 48.0 kHz
Frame rate : 93.750 FPS (512 SPF)
Bit depth : 24 bits
Compression mode : Lossless
Stream size : 1.84 GiB (9%)
Title : Original -HD MA 2.0
Language : French
Default : No
Forced : No

Audio #3
ID : 4
Format : AC-3
Format/Info : Audio Coding 3
Commercial name : Dolby Digital
Codec ID : A_AC3
Duration : 2 h 5 min
Bit rate mode : Constant
Bit rate : 192 kb/s
Channel(s) : 2 channels
Channel layout : L R
Sampling rate : 48.0 kHz
Frame rate : 31.250 FPS (1536 SPF)
Compression mode : Lossy
Stream size : 172 MiB (1%)
Title : Original 2.0
Language : French
Service kind : Complete Main
Default : No
Forced : No

Text #1
ID : 5
Format : UTF-8
Codec ID : S_TEXT/UTF8
Codec ID/Info : UTF-8 Plain Text
Duration : 2 h 2 min
Bit rate : 39 b/s
Count of elements : 1011
Stream size : 35.5 KiB (0%)
Title : Eng (Full) SRT
Language : English
Default : No
Forced : No

Text #2
ID : 6
Format : PGS
Muxing mode : zlib
Codec ID : S_HDMV/PGS
Codec ID/Info : Picture based subtitle format used on BDs/HD-DVDs
Duration : 2 h 2 min
Bit rate : 17.9 kb/s
Count of elements : 2022
Stream size : 15.7 MiB (0%)
Title : Eng (Full) PGS
Language : English
Default : No
Forced : No

Menu
00:00:00.000 : en:Chapter 1
00:11:10.480 : en:Chapter 2
00:19:40.720 : en:Chapter 3
00:32:45.600 : en:Chapter 4
00:39:30.640 : en:Chapter 5
00:48:10.840 : en:Chapter 6
01:00:58.720 : en:Chapter 7
01:12:31.360 : en:Chapter 8
01:22:42.760 : en:Chapter 9
01:30:39.360 : en:Chapter 10
01:39:39.680 : en:Chapter 11
01:51:29.480 : en:Chapter 12
02:00:32.000 : en:Chapter 13
Скріншоти
Джерело: &
Звукозапис з ТБ: п. dvorsky, п. SweetN
Зведення звуку: п. taraskill1, п. rooster
Виготовлення постеру: п. pan_oleg
Особиста оцінка: 10 - без зайвих вагань рекомендую всім!


Золотий реліз (завантажене не впливає на рейтинг)
 Трекер:    Зареєстрований   

Завантажити / скачати фільм українською



відео для новачків



 Зареєстрований:   2020-03-26 02:57
 Розмір:   20.55 GB 
 Оцінка фільму:   9.8/10 (Голосів: 5)
   
Інші релізи
   Страх над містом / Peur sur la ville (1975) 720p Ukr/Fre | Sub Eng MakRA  5 / 0   7.78 GB   2020-03-26 23:54 
   Страх над містом / Peur sur la ville (1975) taraskill1  2 / 0   1.46 GB   2016-05-05 22:37 
+380954897458 
VIP


З нами з: 02.06.17
Востаннє: 18.09.20
Повідомлень: 942

2020-03-30 23:29  
Нещодавно подивився два фільми Анрі Вернея, які мене, чесно кажучи, глибоко вразили, бо маю упереджене ставлення до будь-якого кінематографу, окрім голівудського і південнокорейського (я розумію що так не повинно бути, але що є то є). Цей дивився ще в дитинстві, варто переглянути в дорослому (відносно) віці. Тільки з моїм інтернетом тААААк довго завантажується! За день ще й половини немає.
kryk-v.ya. 
Попереджень: 1
Попереджень: 1 


З нами з: 14.02.14
Востаннє: 19.09.20
Повідомлень: 2237

2020-03-31 00:03  
+380954897458 написано:
варто переглянути в дорослому (відносно) віці.

щось шукаєте?

Ваш часовий пояс: GMT + 2 Години

Нова тема   Відповісти