Бладшот / Bloodshot (2020) 720p Ukr/Eng | sub Ukr/Eng

Нові коментарі

Нова тема   Відповісти
Автор Повідомлення
Anonymous 







2020-03-25 20:29  
Бладшот / Bloodshot (2020) 720p Ukr/Eng | sub Ukr/Eng

Бладшот / Bloodshot (2020) 720p Ukr/Eng | sub Ukr/Eng


Жанр: бойовик, драма, фентезі, фантастика
Країна: США



Кінокомпанія: Sony Pictures Entertainment, Bona Film Group, Columbia Pictures, Cross Creek Pictures, One Race Films, Original Film, The Hideaway Entertainment, Valiant Entertainment
Режисер: Дейв Вілсон
Актори: Він Дізель, Сем Г'юен, Ейса Ґонсалес, Ґай Пірс, Талула Райлі, Тобі Кеббелл, Йоуханнес Хейкьюр Йоуханнессон, Ламорн Морріс, Сіддхартх Дхананджай, Алекс Ернандез та інші.

Сюжет:
Секретна корпорація RST повертає до життя смертельно пораненого морпіха Рея Гарісона (Він Дізель). Завдяки нанотехнологіям він стає Бладшотом – невразливою біотехнологічною зброєю, універсальним солдатом з надлюдською силою. Контролюючи тіло Рея, компанія керує його розумом і спогадами. Бладшот не знає, хто він насправді, і його завдання це з'ясувати.
Офіційні українські трейлери:
трейлер № 1:


трейлер №2:

Рейтинг MPAA: PG-13 - дітям до 13 років перегляд не бажаний
Вікова категорія: 12+

Тривалість: 01:49:20
Якість: 720p [Amazon]
Відео:
кодек:
розмір кадру: 1248 х 520
бітрейт: 4254 кб/с

Аудіо # 1:
мова: українська
переклад: професійний дубльований
кодек: 2.0 [стерео]
бітрейт: 192 кб/с

Аудіо # 2:
мова: англійська
переклад: оригінал
кодек: 5.1
бітрейт: 448 кб/с

Субтитри # 1:
мова: українська
тип: програмні (м'які)
формат: *.srt
переклад: офіційний, Володимир Фатун

Субтитри # 2-3:
мова: англійська (повні, SDH)
тип: програмні (м'які)
формат: *.srt

Збережено оригінальні розділи
Info
Код:

Complete name               : Bloodshot (2020) [Ukr,Eng sub.Ukr,Eng] 720p AMZN [Hurtom].
Format                      :
Format version              : Version 4
File size                   : 3.74 GiB
Duration                    : 1 h 49 min
Overall bit rate            : 4 897 kb/s
Movie name                  : Бладшот / Bloodshot (2020) [Ukr,Eng sub.Ukr,Eng] 720p [Hurtom]
Encoded date                : UTC 2020-03-28 21:19:33
Writing application         : v44.0.0 ('Domino') 64-bit
Writing library             : libebml v1.3.10 + v1.5.2
Cover                       : Yes
Attachments                 : cover.jpg

Video
ID                          : 1
Format                      : AVC
Format/Info                 : Advanced Video Codec
Format profile              : [email protected]
Format settings             : CABAC / 4 Ref Frames
Format settings, CABAC      : Yes
Format settings, Reference  : 4 frames
Codec ID                    : V_MPEG4/ISO/AVC
Duration                    : 1 h 49 min
Bit rate mode               : Constant
Bit rate                    : 4 254 kb/s
Nominal bit rate            : 6 000 kb/s
Width                       : 1 248 pixels
Height                      : 520 pixels
Display aspect ratio        : 2.40:1
Frame rate mode             : Constant
Frame rate                  : 23.976 (24000/1001) FPS
Color space                 : YUV
Chroma subsampling          : 4:2:0
Bit depth                   : 8 bits
Scan type                   : Progressive
Bits/(Pixel*Frame)          : 0.273
Stream size                 : 3.25 GiB (87%)
Title                       : Бладшот / Bloodshot (2020) 720p [Amazon, NTG]
Language                    : English
Default                     : Yes
Forced                      : No
Color range                 : Limited
Color primaries             : BT.709
Transfer characteristics    : BT.709
Matrix coefficients         : BT.709

Audio #1
ID                          : 2
Format                      : AC-3
Format/Info                 : Audio Coding 3
Commercial name             : Dolby Digital
Codec ID                    : A_AC3
Duration                    : 1 h 49 min
Bit rate mode               : Constant
Bit rate                    : 192 kb/s
Channel(s)                  : 2 channels
Channel layout              : L R
Sampling rate               : 44.1 kHz
Frame rate                  : 28.711 FPS (1536 SPF)
Compression mode            : Lossy
Stream size                 : 150 MiB (4%)
Title                       : Dub, 2.0 [stereo] 192 Kbps
Language                    : Ukrainian
Service kind                : Complete Main
Default                     : Yes
Forced                      : No

Audio #2
ID                          : 3
Format                      : AC-3
Format/Info                 : Audio Coding 3
Commercial name             : Dolby Digital
Codec ID                    : A_AC3
Duration                    : 1 h 49 min
Bit rate mode               : Constant
Bit rate                    : 448 kb/s
Channel(s)                  : 6 channels
Channel layout              : L R C LFE Ls Rs
Sampling rate               : 48.0 kHz
Frame rate                  : 31.250 FPS (1536 SPF)
Compression mode            : Lossy
Stream size                 : 350 MiB (9%)
Title                       : Original, 5.1 448 Kbps
Language                    : English
Service kind                : Complete Main
Default                     : No
Forced                      : No

Text #1
ID                          : 4
Format                      : UTF-8
Codec ID                    : S_TEXT/UTF8
Codec ID/Info               : UTF-8 Plain Text
Duration                    : 1 h 41 min
Bit rate                    : 70 b/s
Count of elements           : 1072
Stream size                 : 52.8 KiB (0%)
Title                       : Ukr Full [iTunes]
Language                    : Ukrainian
Default                     : No
Forced                      : No

Text #2
ID                          : 5
Format                      : UTF-8
Codec ID                    : S_TEXT/UTF8
Codec ID/Info               : UTF-8 Plain Text
Duration                    : 1 h 41 min
Bit rate                    : 46 b/s
Count of elements           : 1150
Stream size                 : 34.9 KiB (0%)
Title                       : Eng Full
Language                    : English
Default                     : No
Forced                      : No

Text #3
ID                          : 6
Format                      : UTF-8
Codec ID                    : S_TEXT/UTF8
Codec ID/Info               : UTF-8 Plain Text
Duration                    : 1 h 47 min
Bit rate                    : 51 b/s
Count of elements           : 1493
Stream size                 : 40.6 KiB (0%)
Title                       : Eng SDH
Language                    : English
Default                     : No
Forced                      : No

Menu
00:00:00.000                : en:Studio Logo
00:01:02.000                : en:Scene 2
00:04:10.000                : en:Scene 3
00:05:09.000                : en:Scene 4
00:07:01.000                : en:Scene 5
00:08:51.000                : en:Scene 6
00:13:04.000                : en:Scene 7
00:17:31.000                : en:Scene 8
00:20:39.000                : en:Scene 9
00:22:46.000                : en:Scene 10
00:25:07.000                : en:Scene 11
00:27:57.000                : en:Scene 12
00:29:27.000                : en:Scene 13
00:32:12.000                : en:Scene 14
00:32:43.000                : en:Scene 15
00:38:27.000                : en:Scene 16
00:41:42.000                : en:Scene 17
00:43:21.000                : en:Scene 18
00:50:55.000                : en:Scene 19
00:52:44.000                : en:Scene 20
00:54:16.000                : en:Scene 21
00:56:21.000                : en:Scene 22
01:02:31.000                : en:Scene 23
01:08:10.000                : en:Scene 24
01:09:01.000                : en:Scene 25
01:09:51.000                : en:Scene 26
01:12:44.000                : en:Scene 27
01:17:38.000                : en:Scene 28
01:19:16.000                : en:Scene 29
01:22:21.000                : en:Scene 30
01:27:32.000                : en:Scene 31
01:28:15.000                : en:Scene 32
01:31:09.000                : en:Scene 33
01:35:20.000                : en:Scene 34
01:38:33.000                : en:Scene 35
01:42:38.000                : en:End Credits
Скріншоти


Джерело: & &

25.03.2020 початковий реліз 720p AMZN з українськими офіційними субтитрами
29.03.2020 реліз оновлено: додано український дубляж


Золотий реліз (завантажене не впливає на рейтинг)
 Трекер:    Зареєстрований   

Завантажити / скачати фільм українською



відео для новачків



 Зареєстрований:   2020-03-29 00:34
 Розмір:   3.74 GB 
 Оцінка фільму:   9.4/10 (Голосів: 47)
   
Інші релізи
   Бладшот / Bloodshot (2020) AVC Ukr/Eng | Sub Ukr/Eng 11FrYkT  219 / 23   1.68 GB   2020-03-29 08:24 
   Бладшот / Bloodshot (2020) Ukr/Eng | Sub Ukr/Eng antik_2008  178 / 7   2 GB   2020-03-29 01:40 
   Бладшот / Bloodshot (2020) 1080p Ukr/Eng | Sub Ukr/Eng antik_2008  163 / 17   7.21 GB   2020-03-29 00:21 
   Бладшот / Bloodshot (2020) UHD 4K 2160p HDR H.265 Ukr/Eng | Sub Ukr/Eng antik_2008  55 / 4   17.15 GB   2020-03-29 00:04 
mihail91 
Новенький


З нами з: 25.09.18
Востаннє: 28.03.20
Повідомлень: 6

2020-03-25 21:09  
Коли буде український дубляж і BD-Rip?
Anonymous 







2020-03-25 21:52  
Реліз на роздачі. Скріншоти будуть за годину.
mihail91, щодо українського дубляжу не знаю, бо прокат фільму зірвався чи перенісся, а блурей з'явиться десь на початку червня.

st_78 
VIP


З нами з: 18.11.16
Востаннє: 29.03.20
Повідомлень: 1219

2020-03-25 22:02  
Якщо не йде завантаження спробуйте натиснути "Дякую!". Дякую. Дуже.
Dakkaris 
Модератор програм


З нами з: 13.02.12
Востаннє: 30.03.20
Повідомлень: 1370

2020-03-25 22:02  
don pedro 
Попереджень: 1
Попереджень: 1 


З нами з: 29.06.11
Востаннє: 30.03.20
Повідомлень: 16126

2020-03-26 02:00  
Дякуючи коронавірусу я не сходив на оце в кіно, та й продовження через зрив прокату з тієї ж причини теж не передбачається. Як то кажуть, немає злого щоб на добре не вийшло.
З 52-річного Віна Дізеля такий самий лейтенант, як з мене юнга. А білявка біля нього на початку фільму років на двадцять молодша за "коханого". Про його "акторство" взагалі мовчу. До речі, українські актори дубляжу в інших фільмах з його участю виразніше розмовляють, аніж сам цей "лицедій". Тут просто унікальний випадок, коли дубляж справді кращий за оригінал. Бачу, "Останній мисливець на відьом" так і залишиться його акторською вершиною, де він грав не просто живу шафу.
А над штучними руками ще другому "Дедпулі" сміялись. Взагалі, при перегляді фільму не покидала думка, що кожну цю "знахідку" його творців я вже десь не раз бачив. Бородатенько.
Єдиним хорошим у цьому фільмі є Ейса Гонсалес у штанцях для йоги і купальнику, але цього мало для того, щоб "Бладшота" можна було б дивитись.
Рейтинг на IMDb завищено, дивитись цей фільм не потрібно. Сподіваюсь, продовження таки не буде.

Jatx_11 
Відео Гуртом - фільмокрай
Відео Гуртом - фільмокрай


З нами з: 20.04.11
Востаннє: 30.03.20
Повідомлень: 876

2020-03-26 11:55  
Anonymous написано:
блурей з'явиться десь на початку червня.

Казали що набагато скорше.

Anonymous 







2020-03-26 11:57  
Jatx_11 написано:
Казали

можливо, але я довіряю написаному

mihail91 
Новенький


З нами з: 25.09.18
Востаннє: 28.03.20
Повідомлень: 6

2020-03-27 05:12  
Anonymous
Зрозуміло. Ну що ж почекаю. Дуже хотів сходити на цей фільм. А дивитись фільм і читати субтитри (переклад) щось мені не дуже цікаво.

Додано через 3 хвилини 35 секунд:

Jatx_11 написано:

блурей з'явиться десь на початку червня.

Казали що набагато скорше.

Можливо і швидше. Орієнтовно може бути травень-червень. Вангую.

Anonymous 







2020-03-29 00:36  
Реліз оновлено: додано український дубляж
pirat8 
Новенький


З нами з: 11.10.09
Востаннє: 30.03.20
Повідомлень: 5

2020-03-29 04:53  
Лайно а не фільм!!!
майже 2 години ідіотії

Nahalist 
Поважний учасник


З нами з: 13.12.13
Востаннє: 29.03.20
Повідомлень: 241

2020-03-29 11:21  
pirat8 написано:

Лайно а не фільм!!!
майже 2 години ідіотії


Не може бути. З Дізелем лайна не буває!!

fifiabe 
Частий відвідувач


З нами з: 13.11.15
Востаннє: 29.03.20
Повідомлень: 32

2020-03-29 11:40  
оцінка для фільму "ну такоє - нікакоє"
Nahalist написано:
Не може бути. З Дізелем лайна не буває!!

лайно є в кожному з нас ))

watcher3105 
Новенький


З нами з: 21.01.17
Востаннє: 29.03.20
Повідомлень: 13

2020-03-29 18:42  
Посередньо. 6/10
Ваш часовий пояс: GMT + 2 Години

Нова тема   Відповісти