Джентльмени / The Gentlemen (2019) 720p Ukr/Eng | Sub Ukr/Eng

Нові коментарі

Нова тема   Відповісти
Сторінка:  1, 2  наступна
Автор Повідомлення
Anonymous 







2020-03-24 19:21  


Джентльмени / The Gentlemen (2019) 720p Ukr/Eng | Sub Ukr/Eng



«Criminal. Class»






Жанр: комедія, кримінальний, екшн
Країна: США





Кінокомпанія: Miramax Films
Режисер: Ґай Річі
Актори: Меттью МакКонахі, Чарлі Ханнем, Мішель Докер, Джеремі Стронг, Лайн Рені, Колін Фаррелл, Генрі Голдінг, Том Ву, Чіді Аджуфо, Х'ю Грант


Сюжет:
Мікі Пірсон, емігрант зі Сполучених Штатів, який закінчив Оксфордський університет, вирішив направити свій блискучий розум на створення неймовірно прибуткової бізнес-імперії. Виробництво марихуани завжди була затребуване, так чому ж не відкрити кілька філій у Лондоні, самому серці Сполученого Королівства. Схема вийшло ну дуже вдалою, пора б і продати її якимось грошовим мішкам із Оклахоми. Ось тут-то Пірсона й наздогнав справжній кримінальний світ Англії з його чарівними джентльменами, кожен із яких хотів би встати на шляху в Мікі. Звичайно ж, будуть і перестрілки, і кілька випадкових вбивств, і нестандартні схема - ці джентльмени вміють вести справи витончено.



Тривалість: 01:53:40
Якість: 720p

Відео:
кодек:
розмір кадру: 1280 x 536
бітрейт: 5757 кб/с

Аудіо # 1:
мова: українська
переклад: професійний дубльований
кодек: 5.1
бітрейт: 384 кб/с

Аудіо # 2:
мова: англійська
переклад: оригінал
кодек: 5.1
бітрейт: 640 кб/с

Джерело озвучення:


Субтитри # 1: (Full)
мова: українська
тип: програмні (м'які)
формат: *.srt

Субтитри # 2 - 3: (Full, SDH)
мова: англійська
тип: програмні (м'які)
формат: *.srt


Info
Код:
General
Complete name                            : The Gentlemen (2019) 720p [ukr_eng] [Video_Hurtom].
Format                                   :
Format version                           : Version 4
File size                                : 5.39 GiB
Duration                                 : 1 h 53 min
Overall bit rate                         : 6 784 kb/s
Movie name                               : Джентльмени / The Gentlemen (2019)
Encoded date                             : UTC 2020-05-03 17:09:59
Writing application                      : v30.1.0 ('Forever And More') 64-bit
Writing library                          : libebml v1.3.6 + v1.4.9
Cover                                    : Yes
Attachments                              : cover.jpg

Video
ID                                       : 1
Format                                   : AVC
Format/Info                              : Advanced Video Codec
Format profile                           : [email protected]
Format settings                          : CABAC / 12 Ref Frames
Format settings, CABAC                   : Yes
Format settings, RefFrames               : 12 frames
Codec ID                                 : V_MPEG4/ISO/AVC
Duration                                 : 1 h 53 min
Bit rate                                 : 5 757 kb/s
Width                                    : 1 280 pixels
Height                                   : 536 pixels
Display aspect ratio                     : 2.40:1
Frame rate mode                          : Constant
Frame rate                               : 23.976 (24000/1001) FPS
Color space                              : YUV
Chroma subsampling                       : 4:2:0
Bit depth                                : 8 bits
Scan type                                : Progressive
Bits/(Pixel*Frame)                       : 0.350
Stream size                              : 4.57 GiB (85%)
Writing library                          : core 158 r2984+49 6932f4a t_mod_New [[email protected] X86_64]
Encoding settings                        : cabac=1 / ref=12 / deblock=1:-3:-3 / analyse=0x3:0x133 / me=umh / subme=10 / psy=1 / fade_compensate=0.00 / psy_rd=1.00:0.00 / mixed_ref=1 / me_range=32 / chroma_me=1 / trellis=2 / 8x8dct=1 / cqm=0 / deadzone=21,11 / fast_pskip=0 / chroma_qp_offset=-2 / threads=16 / lookahead_threads=4 / sliced_threads=0 / nr=0 / decimate=0 / interlaced=0 / bluray_compat=0 / constrained_intra=0 / fgo=0 / bframes=12 / b_pyramid=2 / b_adapt=2 / b_bias=0 / direct=3 / weightb=1 / open_gop=0 / weightp=2 / keyint=480 / keyint_min=24 / scenecut=40 / intra_refresh=0 / rc_lookahead=80 / rc=crf / mbtree=0 / crf=16.0000 / qcomp=0.60 / qpmin=0:0:0 / qpmax=69:69:69 / qpstep=4 / vbv_maxrate=62500 / vbv_bufsize=78125 / crf_max=0.0 / nal_hrd=none / filler=0 / ip_ratio=1.30 / pb_ratio=1.20 / aq=3:0.80 / aq-sensitivity=10.00 / aq-factor=1.00:1.00:1.00 / aq2=0 / aq3=0
Language                                 : English
Default                                  : Yes
Forced                                   : No
Color range                              : Limited
Color primaries                          : BT.709
Transfer characteristics                 : BT.709
Matrix coefficients                      : BT.709

Audio #1
ID                                       : 2
Format                                   : AC-3
Format/Info                              : Audio Coding 3
Commercial name                          : Dolby Digital
Codec ID                                 : A_AC3
Duration                                 : 1 h 53 min
Bit rate mode                            : Constant
Bit rate                                 : 384 kb/s
Channel(s)                               : 6 channels
Channel layout                           : L R C LFE Ls Rs
Sampling rate                            : 48.0 kHz
Frame rate                               : 31.250 FPS (1536 SPF)
Bit depth                                : 16 bits
Compression mode                         : Lossy
Stream size                              : 312 MiB (6%)
Title                                    : , 5.1, 384 Kbps
Language                                 : Ukrainian
Service kind                             : Complete Main
Default                                  : Yes
Forced                                   : No

Audio #2
ID                                       : 3
Format                                   : AC-3
Format/Info                              : Audio Coding 3
Commercial name                          : Dolby Digital
Codec ID                                 : A_AC3
Duration                                 : 1 h 53 min
Bit rate mode                            : Constant
Bit rate                                 : 640 kb/s
Channel(s)                               : 6 channels
Channel layout                           : L R C LFE Ls Rs
Sampling rate                            : 48.0 kHz
Frame rate                               : 31.250 FPS (1536 SPF)
Bit depth                                : 16 bits
Compression mode                         : Lossy
Stream size                              : 520 MiB (9%)
Title                                    : , 5.1, 640 Kbps
Language                                 : English
Service kind                             : Complete Main
Default                                  : No
Forced                                   : No

Text #1
ID                                       : 4
Format                                   : UTF-8
Codec ID                                 : S_TEXT/UTF8
Codec ID/Info                            : UTF-8 Plain Text
Duration                                 : 1 h 47 min
Bit rate                                 : 135 b/s
Count of elements                        : 1992
Stream size                              : 107 KiB (0%)
Title                                    : Full
Language                                 : Ukrainian
Default                                  : No
Forced                                   : No

Text #2
ID                                       : 5
Format                                   : UTF-8
Codec ID                                 : S_TEXT/UTF8
Codec ID/Info                            : UTF-8 Plain Text
Duration                                 : 1 h 47 min
Bit rate                                 : 84 b/s
Count of elements                        : 1812
Stream size                              : 67.0 KiB (0%)
Title                                    : Full
Language                                 : English
Default                                  : No
Forced                                   : No

Text #3
ID                                       : 6
Format                                   : UTF-8
Codec ID                                 : S_TEXT/UTF8
Codec ID/Info                            : UTF-8 Plain Text
Duration                                 : 1 h 50 min
Bit rate                                 : 94 b/s
Count of elements                        : 2088
Stream size                              : 76.8 KiB (0%)
Title                                    : SDH
Language                                 : English
Default                                  : No
Forced                                   : No

Menu
00:00:00.000                             : en:Chapter 1
00:04:27.100                             : en:Chapter 2
00:08:16.413                             : en:Chapter 3
00:13:42.780                             : en:Chapter 4
00:19:21.494                             : en:Chapter 5
00:24:49.988                             : en:Chapter 6
00:30:23.530                             : en:Chapter 7
00:37:17.944                             : en:Chapter 8
00:41:55.430                             : en:Chapter 9
00:48:38.874                             : en:Chapter 10
00:56:51.199                             : en:Chapter 11
01:03:34.102                             : en:Chapter 12
01:08:45.038                             : en:Chapter 13
01:14:18.204                             : en:Chapter 14
01:19:05.991                             : en:Chapter 15
01:24:30.023                             : en:Chapter 16
01:29:24.776                             : en:Chapter 17
01:34:21.114                             : en:Chapter 18
01:40:11.130                             : en:Chapter 19
01:48:37.511                             : en:Chapter 20

Скріншоти






Джерело: &
Особиста оцінка: 8 - мені сподобалося






 Трекер:    Зареєстрований   

Завантажити / скачати фільм українською



відео для новачків



 Зареєстрований:   2020-05-03 20:58
 Розмір:   5.39 GB 
 Оцінка фільму:   9.7/10 (Голосів: 176)
   
Інші релізи
d1076398 
Частий відвідувач


З нами з: 14.06.12
Востаннє: 21.09.20
Повідомлень: 44

2020-03-24 22:39  
Крутезний фільм!
Judgment Day 
Свій


З нами з: 05.08.18
Востаннє: 27.09.20
Повідомлень: 133

2020-03-26 15:56  
9.5 із 10. Містер Гай Річі, з поверненням.
Maksimko 
Частий відвідувач


З нами з: 02.11.11
Востаннє: 01.08.20
Повідомлень: 38

2020-03-26 16:10  
Супер!!! 10/10
pijiat 
Новенький


З нами з: 30.06.15
Востаннє: 24.09.20
Повідомлень: 15

2020-03-29 17:10  
Вартий уваги! 10/10
Насолоджуйтесь.

piwer 
Частий відвідувач


З нами з: 22.10.16
Востаннє: 26.09.20
Повідомлень: 28

2020-03-29 23:19  
Після Аладдіна та Короля Артура це як ковток свіжого повітря Happy Дякую!
revoshift 
Новенький


З нами з: 31.05.12
Востаннє: 13.09.20
Повідомлень: 8

2020-03-30 12:09  
На жаль, переклад вбогий - він геть не передає дух фільму. Порівнював із субтитрами. Таке враження, ніби вуличну пацанську балачку причесали для шкільної програми.
Anonymous 







2020-03-31 09:30  
Торент файл оновлено. Заміна аудіо на iTunes, додано укр. субтитри. 
пан Струмок 
VIP


З нами з: 19.02.13
Востаннє: 27.09.20
Повідомлень: 280

2020-03-31 19:43  
Годна стрічка
qarty1 
VIP


З нами з: 01.11.09
Востаннє: 27.09.20
Повідомлень: 385

2020-03-31 22:19  
revoshift
підтримую до такого фільму потрібний переклад без цензури або саби українські +18

waldi-hurtom 
VIP


З нами з: 07.10.12
Востаннє: 27.09.20
Повідомлень: 1179

2020-04-04 20:42  
Чергове сміттячко для хлопців дошкільнят. Піф-паф, ой-ой-ой.
macdes 
Новенький


З нами з: 09.01.19
Востаннє: 22.09.20
Повідомлень: 1

2020-04-08 11:22  
По перше, звук жахливий - дивитись неможливо! Для чого завантажувати такий треш????
По друге, фільм га**** 5/10

Anonymous 







2020-04-09 23:35  
Торент файл оновлено. Заміна відео на 
myru22 
Свій


З нами з: 27.11.16
Востаннє: 25.08.20
Повідомлень: 95

2020-04-10 12:53  
Що не так з кар'єрою Меттью МакКонахі? З 2011 по 2014 був розквіт. За цей період вийшли дійсно круті фільми, Інтерстеллар, Справжній Детектив плюс Оскар на додачу. А далі таке. Дані з IMDb.
|
The Sea of Trees (2015) 6,1/10 (оцінка фільму); 12 412 (кількість голосів користувачів).
|
Free State of Jones (2016) 6,9/10; 48 154.
|
Gold (2016) 6,7/10; 53 759.
|
The Dark Tower (2017) 5,6/10; 119 524.
|
White Boy Rick (2018) 6,4/10; 22 438.
|
Serenity (2019) 5,3/10; 30 485.
|
The Beach Bum (2019) 5,5/10; 15 031.
|
Видно, що фільми мають низькі оцінки, так ще мало голосів (крім провальної Темної Вежі), а значить кіно не дуже популярне. Наприклад Interstellar (2014) 8,6/10; 1 394 126. Кіно має високу оцінку і купу голосів. Явно після 2014, щось пішло не так. Може після Джентельменів все наладиться. Бо актор хороший.

Україна2222 
Новенький


З нами з: 01.06.14
Востаннє: 26.09.20
Повідомлень: 3

2020-04-10 20:37  
А чому аудіо доріжка якась крива , то голосно то тихо хвилями іде . в онлайн дивився все ок а тут .
Iho_rko 
Новенький


З нами з: 27.04.19
Востаннє: 26.09.20
Повідомлень: 3

2020-04-11 00:31  
Лайк за музику та неочікуваний розвиток подій під кінець, дизлайк за довгу зав'язку.
bobo777 
Новенький


З нами з: 03.12.12
Востаннє: 17.09.20
Повідомлень: 3

2020-04-11 10:58  
переклад в стилі "меч короля артура"... після пятої хвилини вимкнув, бо дивитися з таким перекладом неприємно.
mike21 
Новенький


З нами з: 24.07.14
Востаннє: 26.09.20
Повідомлень: 3

2020-04-11 21:50  
Та крутий фільм, гадки не маю чому так багато критики, 9\10 однозначно.
myru22 
Свій


З нами з: 27.11.16
Востаннє: 25.08.20
Повідомлень: 95

2020-04-12 14:37  
дійсно круте кіно. можна буде навіть передивитися. багато хвалять роль Фаррелла, але було б краще, як би її зіграв Стетхем. лайк за The Pharcyde (реп в середині фільму)
Одессит 
Новенький


З нами з: 29.04.14
Востаннє: 26.09.20
Повідомлень: 21

2020-04-12 21:42  
Фільм бомба! МакКонахі класний!
vovu 
Новенький


З нами з: 01.01.15
Востаннє: 24.09.20
Повідомлень: 5

2020-04-13 19:42  
проблеми зі звуком це тільки у мене ?
superromkin 
Свій


З нами з: 28.01.17
Востаннє: 19.07.20
Повідомлень: 60

2020-04-15 19:32  
Добре кіно на загальному фоні. І середненьке, якщо враховувати, що режисер - Річі. Він міг би і краще. 7,5/10
Україна2222 
Новенький


З нами з: 01.06.14
Востаннє: 26.09.20
Повідомлень: 3

2020-04-18 19:39  
vovu
І в мене теж з звуком перебої в онлайн дивився на укр. мові все ок .

mur4v3y 
Свій


З нами з: 31.10.15
Востаннє: 24.09.20
Повідомлень: 58

2020-04-19 00:04  
Звук дійсно хвилями йде.
Дякую за роздачу, фільм ок!)

Bart-Simpson 
Новенький


З нами з: 21.10.18
Востаннє: 24.05.20
Повідомлень: 3

2020-04-29 21:13  
Фільм неймовірно крутий, але сюжет дуже сильно закручений. Важко все зібрати до купи.
Anonymous 







2020-05-03 20:59  
Торент файл оновлено. Заміна аудіо на якісніше ( 5.1 | 384 kbps)
Shukh 
VIP


З нами з: 20.08.11
Востаннє: 16.09.20
Повідомлень: 270

2020-05-04 19:23  
це "стиль"
тут навіть нічого більше додати

povitria 
Новенький


З нами з: 19.10.16
Востаннє: 26.09.20
Повідомлень: 8

2020-05-16 18:08  
Не розумію, чому багато нарікань на переклад. Для того щоб зрозуміти що герої лаються, не обов'язково слухати матючіння.

У москалів зараз в нормі мат в фільмах, відео, інколи на ТБ, про вуличне спілкування вже мовчу. Але ж ми не москалі.

KeryaS 
VIP


З нами з: 01.09.14
Востаннє: 27.09.20
Повідомлень: 303

2020-05-16 19:02  
povitria написано:
У москалів

Але ж фільм не про москалів) (хоч вони там і є). Переклад просто не відповідає оригіналу, якби всіх героїв у перекладі звали Тарасом ви б теж цьому раділи?

KarpatyS 
Свій


З нами з: 08.01.12
Востаннє: 26.09.20
Повідомлень: 63

2020-05-18 22:20  
10 з 10
Ваш часовий пояс: GMT + 2 Години

Нова тема   Відповісти Сторінка:  1, 2  наступна