Джентльмени / The Gentlemen (2019) 720p Ukr/Eng | Sub Ukr/Eng

Нові коментарі

Нова тема   Відповісти
Автор Повідомлення
Anonymous 







2020-03-24 19:21  


Джентльмени / The Gentlemen (2019) 720p Ukr/Eng | Sub Ukr/Eng



«Criminal. Class»






Жанр: комедія, кримінальний, екшн
Країна: США





Кінокомпанія: Miramax Films
Режисер: Ґай Річі
Актори: Меттью МакКонахі, Чарлі Ханнем, Мішель Докер, Джеремі Стронг, Лайн Рені, Колін Фаррелл, Генрі Голдінг, Том Ву, Чіді Аджуфо, Х'ю Грант


Сюжет:
Мікі Пірсон, емігрант зі Сполучених Штатів, який закінчив Оксфордський університет, вирішив направити свій блискучий розум на створення неймовірно прибуткової бізнес-імперії. Виробництво марихуани завжди була затребуване, так чому ж не відкрити кілька філій у Лондоні, самому серці Сполученого Королівства. Схема вийшло ну дуже вдалою, пора б і продати її якимось грошовим мішкам із Оклахоми. Ось тут-то Пірсона й наздогнав справжній кримінальний світ Англії з його чарівними джентльменами, кожен із яких хотів би встати на шляху в Мікі. Звичайно ж, будуть і перестрілки, і кілька випадкових вбивств, і нестандартні схема - ці джентльмени вміють вести справи витончено.



Тривалість: 01:53:16
Якість: 720p {Amazon Version}

Відео:
кодек:
розмір кадру: 1248 x 520
бітрейт: 3666 кб/с

Аудіо # 1:
мова: українська
переклад: професійний дубльований
кодек: 2.0
бітрейт: 192 кб/с

Аудіо # 2:
мова: англійська
переклад: оригінал
кодек: E- 5.1
бітрейт: 640 кб/с

Джерело озвучення:


Субтитри # 1: (Full)
мова: українська
тип: програмні (м'які)
формат: *.srt

Субтитри # 2 - 3: (Full, SDH)
мова: англійська
тип: програмні (м'які)
формат: *.srt


Info
Код:
General
Complete name                            : The Gentlemen (2019) 720p AMZN [ukr,eng] [ViDeO_Hurtom].
Format                                   :
Format version                           : Version 4
File size                                : 3.56 GiB
Duration                                 : 1 h 53 min
Overall bit rate                         : 4 501 kb/s
Movie name                               : Джентльмени / The Gentlemen (2019)
Encoded date                             : UTC 2020-03-31 06:10:44
Writing application                      : v30.1.0 ('Forever And More') 64-bit
Writing library                          : libebml v1.3.6 + v1.4.9
Cover                                    : Yes
Attachments                              : cover.jpg

Video
ID                                       : 1
Format                                   : AVC
Format/Info                              : Advanced Video Codec
Format profile                           : [email protected]
Format settings                          : CABAC / 4 Ref Frames
Format settings, CABAC                   : Yes
Format settings, RefFrames               : 4 frames
Codec ID                                 : V_MPEG4/ISO/AVC
Duration                                 : 1 h 53 min
Bit rate mode                            : Constant
Bit rate                                 : 3 666 kb/s
Nominal bit rate                         : 6 000 kb/s
Width                                    : 1 248 pixels
Height                                   : 520 pixels
Display aspect ratio                     : 2.40:1
Frame rate mode                          : Constant
Frame rate                               : 23.976 (24000/1001) FPS
Color space                              : YUV
Chroma subsampling                       : 4:2:0
Bit depth                                : 8 bits
Scan type                                : Progressive
Bits/(Pixel*Frame)                       : 0.236
Stream size                              : 2.90 GiB (81%)
Default                                  : Yes
Forced                                   : No
Color range                              : Limited
Color primaries                          : BT.709
Transfer characteristics                 : BT.709
Matrix coefficients                      : BT.709

Audio #1
ID                                       : 2
Format                                   : AC-3
Format/Info                              : Audio Coding 3
Commercial name                          : Dolby Digital
Codec ID                                 : A_AC3
Duration                                 : 1 h 53 min
Bit rate mode                            : Constant
Bit rate                                 : 192 kb/s
Channel(s)                               : 2 channels
Channel layout                           : L R
Sampling rate                            : 48.0 kHz
Frame rate                               : 31.250 FPS (1536 SPF)
Bit depth                                : 16 bits
Compression mode                         : Lossy
Stream size                              : 156 MiB (4%)
Title                                    : 2.0 | 192
Language                                 : Ukrainian
Service kind                             : Complete Main
Default                                  : Yes
Forced                                   : No

Audio #2
ID                                       : 3
Format                                   : E-AC-3
Format/Info                              : Enhanced AC-3
Commercial name                          : Dolby Digital Plus
Codec ID                                 : A_EAC3
Duration                                 : 1 h 53 min
Bit rate mode                            : Constant
Bit rate                                 : 640 kb/s
Channel(s)                               : 6 channels
Channel layout                           : L R C LFE Ls Rs
Sampling rate                            : 48.0 kHz
Frame rate                               : 31.250 FPS (1536 SPF)
Compression mode                         : Lossy
Stream size                              : 518 MiB (14%)
Title                                    : E- 5.1 | 640
Language                                 : English
Service kind                             : Complete Main
Default                                  : No
Forced                                   : No

Text #1
ID                                       : 4
Format                                   : UTF-8
Codec ID                                 : S_TEXT/UTF8
Codec ID/Info                            : UTF-8 Plain Text
Duration                                 : 1 h 47 min
Bit rate                                 : 135 b/s
Count of elements                        : 1992
Stream size                              : 107 KiB (0%)
Title                                    : Full
Language                                 : Ukrainian
Default                                  : Yes
Forced                                   : No

Text #2
ID                                       : 5
Format                                   : UTF-8
Codec ID                                 : S_TEXT/UTF8
Codec ID/Info                            : UTF-8 Plain Text
Duration                                 : 1 h 47 min
Bit rate                                 : 84 b/s
Count of elements                        : 1812
Stream size                              : 67.0 KiB (0%)
Title                                    : Full
Language                                 : English
Default                                  : No
Forced                                   : No

Text #3
ID                                       : 6
Format                                   : UTF-8
Codec ID                                 : S_TEXT/UTF8
Codec ID/Info                            : UTF-8 Plain Text
Duration                                 : 1 h 50 min
Bit rate                                 : 94 b/s
Count of elements                        : 2088
Stream size                              : 76.8 KiB (0%)
Title                                    : SDH
Language                                 : English
Default                                  : No
Forced                                   : No

Menu
00:00:00.000                             : en:Studio Logo / en:Studio Logo / en:Studio Logo
00:00:38.000                             : en:Scene 2 / en:Scene 2 / en:Scene 2
00:01:00.000                             : en:Opening Credits / en:Opening Credits / en:Opening Credits
00:01:19.000                             : en:Scene 4 / en:Scene 4 / en:Scene 4
00:02:14.000                             : en:Title Sequence / en:Title Sequence / en:Title Sequence
00:04:03.000                             : en:Scene 6 / en:Scene 6 / en:Scene 6
00:13:19.000                             : en:Scene 7 / en:Scene 7 / en:Scene 7
00:22:08.000                             : en:Scene 8 / en:Scene 8 / en:Scene 8
00:28:52.000                             : en:Scene 9 / en:Scene 9 / en:Scene 9
00:35:29.000                             : en:Scene 10 / en:Scene 10 / en:Scene 10
00:39:20.000                             : en:Scene 11 / en:Scene 11 / en:Scene 11
00:43:52.000                             : en:Scene 12 / en:Scene 12 / en:Scene 12
00:55:51.000                             : en:Scene 13 / en:Scene 13 / en:Scene 13
01:06:29.000                             : en:Scene 14 / en:Scene 14 / en:Scene 14
01:11:48.000                             : en:Scene 15 / en:Scene 15 / en:Scene 15
01:29:00.000                             : en:Scene 16 / en:Scene 16 / en:Scene 16
01:38:51.000                             : en:Scene 17 / en:Scene 17 / en:Scene 17
01:48:14.000                             : en:End Credits / en:End Credits / en:End Credits

Скріншоти








Джерело:
Особиста оцінка: 8 - мені сподобалося






Золотий реліз (завантажене не впливає на рейтинг)
 Трекер:    Зареєстрований   

Завантажити / скачати фільм українською



відео для новачків



 Зареєстрований:   2020-03-31 09:28
 Розмір:   3.56 GB 
 Оцінка фільму:   9.8/10 (Голосів: 100)
   
Інші релізи
   Джентльмени / The Gentlemen (2019) AVC Ukr/Eng | Sub Eng 11FrYkT  279 / 11   2.52 GB   2020-03-31 10:51 
   Джентльмени / The Gentlemen (2019) 1080p Ukr/Eng | Sub Ukr/Eng antik_2008  216 / 23   7.91 GB   2020-03-31 09:26 
   Джентльмени / The Gentlemen (2019) Ukr/Eng antik_2008  112 / 3   2 GB   2020-03-31 01:21 
Anonymous 







2020-03-24 22:27  
Реліз готовий !
d1076398 
Частий відвідувач


З нами з: 14.06.12
Востаннє: 30.03.20
Повідомлень: 44

2020-03-24 22:39  
Крутезний фільм!
Judgment Day 
Свій


З нами з: 05.08.18
Востаннє: 03.04.20
Повідомлень: 130

2020-03-26 15:56  
9.5 із 10. Містер Гай Річі, з поверненням.
Maksimko 
Частий відвідувач


З нами з: 02.11.11
Востаннє: 03.04.20
Повідомлень: 38

2020-03-26 16:10  
Супер!!! 10/10
pijiat 
Новенький


З нами з: 30.06.15
Востаннє: 03.04.20
Повідомлень: 11

2020-03-29 17:10  
Вартий уваги! 10/10
Насолоджуйтесь.

piwer 
Частий відвідувач


З нами з: 22.10.16
Востаннє: 03.04.20
Повідомлень: 25

2020-03-29 23:19  
Після Аладдіна та Короля Артура це як ковток свіжого повітря Happy Дякую!
revoshift 
Новенький


З нами з: 31.05.12
Востаннє: 03.04.20
Повідомлень: 7

2020-03-30 12:09  
На жаль, переклад вбогий - він геть не передає дух фільму. Порівнював із субтитрами. Таке враження, ніби вуличну пацанську балачку причесали для шкільної програми.
Anonymous 







2020-03-31 09:30  
Торент файл оновлено. Заміна аудіо на iTunes, додано укр. субтитри. 
пан Струмок 
VIP


З нами з: 19.02.13
Востаннє: 03.04.20
Повідомлень: 251

2020-03-31 19:43  
Годна стрічка
qarty1 
VIP


З нами з: 01.11.09
Востаннє: 03.04.20
Повідомлень: 322

2020-03-31 22:19  
revoshift
підтримую до такого фільму потрібний переклад без цензури або саби українські +18

Ваш часовий пояс: GMT + 2 Години

Нова тема   Відповісти