Банкір / The Banker (2020) 720p Eng | sub Ukr/Eng

Нові коментарі

Нова тема   Відповісти
Автор Повідомлення
Anonymous 







2020-03-23 00:55  
Банкір / The Banker (2020) 720p Eng | sub Ukr/Eng

Банкір / The Banker (2020) 720p Eng | sub Ukr/Eng
Інші постери:









Жанр: драма, біографічний
Країна: США



Кінокомпанія: Romulus Entertainment, Hyphenate Films, Iam21 Entertainment, Mad Hatter Films, Apple TV+
Режисер: Джордж Нолфі / George Nolfi
Актори: Ентоні Макі / Anthony Mackie, Семюель Л. Джексон / Samuel L. Jackson, Ніколас Голт / Nicholas Hoult, Ніа Лонг, Колм Міні, Майкл Гарні, Девід Мальдонадо та інші.

Сюжет:
Історія афроамериканських бізнес-партнерів Джо Морріса (Семюель Л. Джексон) і Бернарда Ґарретта (Ентоні Макі), які в 1950-х роках заснували успішне агентство нерухомості. Уникаючи расових обмежень, вони наймають підставного білого керівника компанії (Ніколас Голт), а самі прикидаються простими двірником і водієм. На вершині успіху над ними нависає загроза викриття.
Офіційний трейлер:

Рейтинг MPAA: PG-13 - дітям до 13 років перегляд не бажаний
Вікова категорія: 12+

Тривалість: 02:00:25
Якість: 720p
Відео:
кодек:
розмір кадру: 1482 х 620
бітрейт: 2823 кб/с

Аудіо:
мова: англійська
переклад: оригінал
кодек: 5.1
бітрейт: 448 кб/с

Субтитри # 1:
мова: українська
тип: програмні (м'які)
формат: *.srt
переклад: офіційний, Олена Цехмейструк

Субтитри # 2-3:
мова: англійська (повні, SDH)
тип: програмні (м'які)
формат: *.srt
Info
Код:

Complete name               : The Banker (2020) [Eng sub.Ukr,Eng] 720p [Hurtom].
Format                      :
Format version              : Version 4
File size                   : 2.75 GiB
Duration                    : 2 h 0 min
Overall bit rate            : 3 273 kb/s
Movie name                  : Банкір / The Banker (2020) [Eng sub.Ukr,Eng] 720p [Hurtom]
Encoded date                : UTC 2020-03-22 21:16:49
Writing application         : v44.0.0 ('Domino') 64-bit
Writing library             : libebml v1.3.10 + v1.5.2
Cover                       : Yes
Attachments                 : cover.jpg

Video
ID                          : 1
Format                      : AVC
Format/Info                 : Advanced Video Codec
Format profile              : [email protected]
Format settings             : CABAC / 5 Ref Frames
Format settings, CABAC      : Yes
Format settings, Reference  : 5 frames
Codec ID                    : V_MPEG4/ISO/AVC
Duration                    : 2 h 0 min
Bit rate                    : 2 823 kb/s
Width                       : 1 482 pixels
Height                      : 620 pixels
Display aspect ratio        : 2.40:1
Frame rate mode             : Constant
Frame rate                  : 23.976 (24000/1001) FPS
Color space                 : YUV
Chroma subsampling          : 4:2:0
Bit depth                   : 8 bits
Scan type                   : Progressive
Bits/(Pixel*Frame)          : 0.128
Stream size                 : 2.37 GiB (86%)
Title                       : Банкір / The Banker (2020) 720p [SECRECY]
Language                    : English
Default                     : Yes
Forced                      : No
Color range                 : Limited
Color primaries             : BT.709
Transfer characteristics    : BT.709
Matrix coefficients         : BT.709

Audio
ID                          : 2
Format                      : AC-3
Format/Info                 : Audio Coding 3
Commercial name             : Dolby Digital
Codec ID                    : A_AC3
Duration                    : 2 h 0 min
Bit rate mode               : Constant
Bit rate                    : 448 kb/s
Channel(s)                  : 6 channels
Channel layout              : L R C LFE Ls Rs
Sampling rate               : 48.0 kHz
Frame rate                  : 31.250 FPS (1536 SPF)
Compression mode            : Lossy
Stream size                 : 386 MiB (14%)
Language                    : English
Service kind                : Complete Main
Default                     : Yes
Forced                      : No

Text #1
ID                          : 3
Format                      : UTF-8
Codec ID                    : S_TEXT/UTF8
Codec ID/Info               : UTF-8 Plain Text
Duration                    : 2 h 0 min
Bit rate                    : 105 b/s
Count of elements           : 1834
Stream size                 : 93.2 KiB (0%)
Title                       : Ukr Full [Apple TV+]
Language                    : Ukrainian
Default                     : Yes
Forced                      : Yes

Text #2
ID                          : 4
Format                      : UTF-8
Codec ID                    : S_TEXT/UTF8
Codec ID/Info               : UTF-8 Plain Text
Duration                    : 1 h 53 min
Bit rate                    : 74 b/s
Count of elements           : 1751
Stream size                 : 61.5 KiB (0%)
Title                       : Eng Full
Language                    : English
Default                     : No
Forced                      : No

Text #3
ID                          : 5
Format                      : UTF-8
Codec ID                    : S_TEXT/UTF8
Codec ID/Info               : UTF-8 Plain Text
Duration                    : 1 h 56 min
Bit rate                    : 75 b/s
Count of elements           : 1848
Stream size                 : 64.4 KiB (0%)
Title                       : Eng [SDH]
Language                    : English
Default                     : No
Forced                      : No
Скріншоти


Джерело: &
Подяка п.DanyZemlyanoy за українізацію постера.


 Трекер:    Зареєстрований   

Завантажити / скачати фільм українською



відео для новачків



 Зареєстрований:   2020-03-23 00:55
 Розмір:   2.75 GB 
 Оцінка фільму:   8.8/10 (Голосів: 9)
 ЗАЛИШАЙТЕСЬ ЯКОМОГА ДОВШЕ НА РОЗДАЧІ! ЗАВАНТАЖИВ САМ - ДАЙ ЗАВАНТАЖИТИ ІНШИМ!
   
DanyZemlyanoy 
Відео Гуртом - дизайнер
Відео Гуртом - дизайнер


З нами з: 02.07.16
Востаннє: 03.04.20
Повідомлень: 51

2020-03-23 18:15  
Український постер:
Банкір / The Banker (2020)

UFDUB_TR 
Новенький


З нами з: 08.02.20
Востаннє: 03.04.20
Повідомлень: 24

2020-03-24 02:28  
Цікаво подивитися українською =)
Susiak 
Новенький


З нами з: 24.02.12
Востаннє: 01.04.20
Повідомлень: 7

2020-03-29 19:02  
рекомендую, гарний фільм
bohdk 
Відео Гуртом - субтитрування
Відео Гуртом - субтитрування


З нами з: 23.10.09
Востаннє: 03.04.20
Повідомлень: 701

2020-04-01 08:16  
Щодо сюжету: лайно в позлітці. Історія про те, як двоє чорних під білою вивіскою вирішили прикрити американськими ідеалами оборудки з кредитами, коли засвітилися. На що тільки не підеш, щоб уникнути покарання. Або максимально його зменшити.
Щодо фільму взагалі: ну таке... Вдруге не оглядатиму.

Ваш часовий пояс: GMT + 2 Години

Нова тема   Відповісти