Парк атракціонів (Eld & lågor) / Swoon (2019) 1080p Ukr/Swe

Нові коментарі

Нова тема   Відповісти
Автор Повідомлення
Anonymous 







2020-03-22 22:09  
Парк атракціонів (Eld & lågor) / Swoon (2019) 1080p Ukr/Swe



Жанр: романтичний, мелодрама
Країна: Швеція



Кінокомпанія: Atmo Production
Режисер: Манс Марлінд, Бйорн Стейн
Актори: Альбен Ґренгольм, Фріда Ґуставссон, Едвін Ендре, Пернілла Ауґуст, Роберт Ґустафссон, Леннарт Якель, Гелена Аф Сандеберґ, Сергій Онопко, Інга Авемо Ходелл, Фредерік Хіллер та інші

Сюжет:
Події розгортаються у Стокгольмі незадовго до початку Другої світової війни. У центрі міста діють два парки атракціонів. Вони суттєво відрізняються один від одного. Один із них розрахований на більш вимогливу публіку, яка має змогу сплатити чималі кошти за свої розваги. Інший – більш доступний за ціною, але намагається не відставати у якості та різноманітті пропонованих розваг. Власники парків роками ворогують між собою. Діти родин випадково зустрічаються та закохуються. Юнак та дівчина вбачають головну свою проблему у тому, як сказати таку приголомшливу новину батькам. Та увесь світ накриває значно більш шокуюча звістка, яка змінить життя кожного без виключення. Розпочалася Друга світова війна.


Тривалість: 01:43:48
Якість: 1080p
Відео:
кодек:
розмір кадру: 1920x800
бітрейт: 10700 Кб/с

Аудіо # 1:
мова: українська
переклад: багатоголосий закадровий
кодек: 5.1
бітрейт: 384 кб/с

Аудіо # 2:
мова: швецька
переклад: оригінал
кодек: 5.1
бітрейт: 640 кб/с

Info
Код:

General
Complete name                            : Swoon (2019) 1080p [Ukr_Swe] [Video_Hurtom].
Format                                   :
Format version                           : Version 4
File size                                : 8.53 GiB
Duration                                 : 1 h 43 min
Overall bit rate                         : 11.8 Mb/s
Movie name                               : Парк атракціонів (Eld & lågor) / Swoon (2019)
Encoded date                             : UTC 2020-03-22 18:40:15
Writing application                      : v30.1.0 ('Forever And More') 64-bit
Writing library                          : libebml v1.3.6 + v1.4.9
Cover                                    : Yes
Attachments                              : cover.jpg

Video
ID                                       : 1
Format                                   : AVC
Format/Info                              : Advanced Video Codec
Format profile                           : [email protected]
Format settings                          : CABAC / 4 Ref Frames
Format settings, CABAC                   : Yes
Format settings, RefFrames               : 4 frames
Codec ID                                 : V_MPEG4/ISO/AVC
Duration                                 : 1 h 43 min
Bit rate                                 : 10.7 Mb/s
Width                                    : 1 920 pixels
Height                                   : 800 pixels
Display aspect ratio                     : 2.40:1
Frame rate mode                          : Constant
Frame rate                               : 24.000 FPS
Color space                              : YUV
Chroma subsampling                       : 4:2:0
Bit depth                                : 8 bits
Scan type                                : Progressive
Bits/(Pixel*Frame)                       : 0.291
Stream size                              : 7.79 GiB (91%)
Writing library                          : core 146 r2538 121396c
Encoding settings                        : cabac=1 / ref=1 / deblock=1:-1:-1 / analyse=0x3:0x113 / me=hex / subme=2 / psy=1 / psy_rd=1.00:0.20 / mixed_ref=0 / me_range=16 / chroma_me=1 / trellis=0 / 8x8dct=1 / cqm=0 / deadzone=21,11 / fast_pskip=1 / chroma_qp_offset=0 / threads=18 / lookahead_threads=6 / sliced_threads=0 / nr=0 / decimate=1 / interlaced=0 / bluray_compat=0 / constrained_intra=0 / bframes=3 / b_pyramid=2 / b_adapt=1 / b_bias=0 / direct=1 / weightb=1 / open_gop=0 / weightp=1 / keyint=250 / keyint_min=23 / scenecut=40 / intra_refresh=0 / rc_lookahead=10 / rc=crf / mbtree=1 / crf=14.7 / qcomp=0.60 / qpmin=0 / qpmax=69 / qpstep=4 / vbv_maxrate=14000 / vbv_bufsize=14000 / crf_max=0.0 / nal_hrd=none / filler=0 / ip_ratio=1.40 / aq=1:1.00
Language                                 : English
Default                                  : Yes
Forced                                   : No

Audio #1
ID                                       : 2
Format                                   : AC-3
Format/Info                              : Audio Coding 3
Commercial name                          : Dolby Digital
Codec ID                                 : A_AC3
Duration                                 : 1 h 43 min
Bit rate mode                            : Constant
Bit rate                                 : 384 kb/s
Channel(s)                               : 6 channels
Channel layout                           : L R C LFE Ls Rs
Sampling rate                            : 48.0 kHz
Frame rate                               : 31.250 FPS (1536 SPF)
Bit depth                                : 16 bits
Compression mode                         : Lossy
Stream size                              : 285 MiB (3%)
Title                                    : , 384 Kb/s (6 ch)
Language                                 : Ukrainian
Service kind                             : Complete Main
Default                                  : Yes
Forced                                   : No

Audio #2
ID                                       : 3
Format                                   : AC-3
Format/Info                              : Audio Coding 3
Commercial name                          : Dolby Digital
Codec ID                                 : A_AC3
Duration                                 : 1 h 43 min
Bit rate mode                            : Constant
Bit rate                                 : 640 kb/s
Channel(s)                               : 6 channels
Channel layout                           : L R C LFE Ls Rs
Sampling rate                            : 48.0 kHz
Frame rate                               : 31.250 FPS (1536 SPF)
Bit depth                                : 16 bits
Compression mode                         : Lossy
Stream size                              : 475 MiB (5%)
Title                                    : , 640 Kb/s (6 ch)
Language                                 : Swedish
Service kind                             : Complete Main
Default                                  : No
Forced                                   : No

Menu
00:00:00.000                             : en:1
00:04:08.790                             : en:2
00:06:53.788                             : en:3
00:11:53.129                             : en:4
00:15:30.304                             : en:5
00:20:34.775                             : en:6
00:23:20.148                             : en:7
00:26:41.724                             : en:8
00:30:58.813                             : en:9
00:36:05.870                             : en:10
00:41:34.239                             : en:11
00:45:41.235                             : en:12
00:49:57.073                             : en:13
00:53:58.189                             : en:14
00:56:33.594                             : en:15
01:00:06.056                             : en:16
01:08:46.200                             : en:17
01:12:51.068                             : en:18
01:17:33.557                             : en:19
01:20:18.220                             : en:20
01:23:18.357                             : en:21
01:26:04.523                             : en:22
01:29:46.453                             : en:23
01:33:08.154                             : en:24






Джерело:
Особиста оцінка: 8 - мені сподобалося


 Трекер:    Зареєстрований   

Завантажити / скачати фільм українською



відео для новачків



 Зареєстрований:   2020-03-22 22:09
 Розмір:   8.53 GB 
 Оцінка фільму:   10/10 (Голосів: 1)
   
Інші релізи
Ваш часовий пояс: GMT + 2 Години

Нова тема   Відповісти