Парк атракціонів (Eld & lågor) / Swoon (2019) Remux 1080p Ukr/Swe

Нові коментарі

Нова тема   Відповісти
Автор Повідомлення
Anonymous 







2020-03-22 20:34  
Парк атракціонів (Eld & lågor) / Swoon (2019) Remux 1080p Ukr/Swe



Жанр: романтичний, мелодрама
Країна: Швеція



Кінокомпанія: Atmo Production
Режисер: Манс Марлінд, Бйорн Стейн
Актори: Альбен Ґренгольм, Фріда Ґуставссон, Едвін Ендре, Пернілла Ауґуст, Роберт Ґустафссон, Леннарт Якель, Гелена Аф Сандеберґ, Сергій Онопко, Інга Авемо Ходелл, Фредерік Хіллер та інші

Сюжет:
Події розгортаються у Стокгольмі незадовго до початку Другої світової війни. У центрі міста діють два парки атракціонів. Вони суттєво відрізняються один від одного. Один із них розрахований на більш вимогливу публіку, яка має змогу сплатити чималі кошти за свої розваги. Інший – більш доступний за ціною, але намагається не відставати у якості та різноманітті пропонованих розваг. Власники парків роками ворогують між собою. Діти родин випадково зустрічаються та закохуються. Юнак та дівчина вбачають головну свою проблему у тому, як сказати таку приголомшливу новину батькам. Та увесь світ накриває значно більш шокуюча звістка, яка змінить життя кожного без виключення. Розпочалася Друга світова війна.


Тривалість: 01:43:48
Якість: Blu-Ray Remux 1080p

Відео:
кодек:
розмір кадру: 1920x1080
бітрейт: ~21200 Кб/с

Аудіо # 1:
мова: українська
переклад: багатоголосий закадровий
кодек: 5.1
бітрейт: 384 кб/с

Аудіо # 2:
мова: швецька
переклад: оригінал
кодек: -HD Master 5.1
бітрейт: 1855 кб/с

Info
Код:

General
Complete name                            : Swoon (2019) Blu-Ray Remux 1080p [Ukr_Swe] [Video_Hurtom].
Format                                   :
Format version                           : Version 4
File size                                : 17.0 GiB
Duration                                 : 1 h 43 min
Overall bit rate mode                    : Variable
Overall bit rate                         : 23.4 Mb/s
Movie name                               : Парк атракціонів (Eld & lågor) / Swoon (2019)
Encoded date                             : UTC 2020-03-22 16:45:53
Writing application                      : v30.1.0 ('Forever And More') 64-bit
Writing library                          : libebml v1.3.6 + v1.4.9
Cover                                    : Yes
Attachments                              : cover.jpg

Video
ID                                       : 1
Format                                   : AVC
Format/Info                              : Advanced Video Codec
Format profile                           : [email protected]
Format settings                          : CABAC / 4 Ref Frames
Format settings, CABAC                   : Yes
Format settings, RefFrames               : 4 frames
Codec ID                                 : V_MPEG4/ISO/AVC
Duration                                 : 1 h 43 min
Bit rate mode                            : Variable
Bit rate                                 : 21.2 Mb/s
Maximum bit rate                         : 35.0 Mb/s
Width                                    : 1 920 pixels
Height                                   : 1 080 pixels
Display aspect ratio                     : 16:9
Frame rate mode                          : Constant
Frame rate                               : 24.000 FPS
Color space                              : YUV
Chroma subsampling                       : 4:2:0
Bit depth                                : 8 bits
Scan type                                : Progressive
Bits/(Pixel*Frame)                       : 0.425
Stream size                              : 15.3 GiB (90%)
Language                                 : English
Default                                  : Yes
Forced                                   : No
Color range                              : Limited
Color primaries                          : BT.709
Transfer characteristics                 : BT.709
Matrix coefficients                      : BT.709

Audio #1
ID                                       : 2
Format                                   : AC-3
Format/Info                              : Audio Coding 3
Commercial name                          : Dolby Digital
Codec ID                                 : A_AC3
Duration                                 : 1 h 43 min
Bit rate mode                            : Constant
Bit rate                                 : 384 kb/s
Channel(s)                               : 6 channels
Channel layout                           : L R C LFE Ls Rs
Sampling rate                            : 48.0 kHz
Frame rate                               : 31.250 FPS (1536 SPF)
Bit depth                                : 16 bits
Compression mode                         : Lossy
Stream size                              : 285 MiB (2%)
Title                                    : , 6 ch, 384 Кбт/с
Language                                 : Ukrainian
Service kind                             : Complete Main
Default                                  : Yes
Forced                                   : No

Audio #2
ID                                       : 3
Format                                   : XLL
Format/Info                              : Digital Theater Systems
Commercial name                          : -HD Master Audio
Codec ID                                 : A_DTS
Duration                                 : 1 h 43 min
Bit rate mode                            : Variable
Bit rate                                 : 1 855 kb/s
Channel(s)                               : 6 channels
Channel layout                           : C L R Ls Rs LFE
Sampling rate                            : 48.0 kHz
Frame rate                               : 93.750 FPS (512 SPF)
Bit depth                                : 16 bits
Compression mode                         : Lossless
Stream size                              : 1.35 GiB (8%)
Title                                    : -HD MA, 6 ch, 1855 Кбт/с
Language                                 : Swedish
Default                                  : No
Forced                                   : No

Menu
00:00:00.000                             : en:Chapter 1
00:08:45.458                             : en:Chapter 2
00:17:49.583                             : en:Chapter 3
00:21:17.791                             : en:Chapter 4
00:26:04.291                             : en:Chapter 5
00:32:59.458                             : en:Chapter 6
00:42:12.083                             : en:Chapter 7
00:47:55.291                             : en:Chapter 8
00:52:48.125                             : en:Chapter 9
01:00:52.416                             : en:Chapter 10
01:08:47.083                             : en:Chapter 11
01:13:21.541                             : en:Chapter 12
01:17:03.541                             : en:Chapter 13
01:25:15.208                             : en:Chapter 14
01:32:39.666                             : en:Chapter 15
01:37:47.750                             : en:Chapter 16






Джерело:
Особиста оцінка: 8 - мені сподобалося


Золотий реліз (завантажене не впливає на рейтинг)
 Трекер:    Зареєстрований   

Завантажити / скачати фільм українською



відео для новачків



 Зареєстрований:   2020-03-22 20:34
 Розмір:   16.97 GB 
 Оцінка фільму:   8.6/10 (Голосів: 5)
   
Інші релізи
Anonymous 







2020-05-25 14:23  
Цікавий фільм !
nazar-pc 
Новенький


З нами з: 17.11.16
Востаннє: 11.08.20
Повідомлень: 10

2020-06-29 14:26  
Хтось роздасть?
Ваш часовий пояс: GMT + 2 Години

Нова тема   Відповісти