Сукіякі Вестерн Джанго / Sukiyaki Western Django [International Cut] (2007) 1080p Ukr/Eng | Sub Eng

Нові коментарі

Нова тема   Відповісти
Останній раз роздавалося coltojkee (2020-09-25)
Автор Повідомлення
Anonymous 







2020-03-22 16:38  
Сукіякі Вестерн Джанго / Sukiyaki Western Django [International Cut] (2007) 1080p Ukr/Eng | Sub Eng

Сукіякі Вестерн Джанго / Sukiyaki Western Django [International Cut] (2007) 1080p Ukr/Eng | Sub Eng


Жанр: сукіякі вестерн
Країна: Японія
Кінокомпанія: Dentsu Productions Ltd
Режисер: Такаші Міїке / Takashi Miike
Актори: Квентін Тарантіно, Масанобу Андо, Хідеакі Іто, Коїчі Сато, Юсуке Ісея та інші

Сюжет:
За кілька сотень років після сумнозвісної битви у затоці Донноура (1185) у далекому японському селищі знову зростає напруга. Дві банди - Гендзі, одягнені в біле, та Хейке, одягнені в червоне, - вступають у жорстоке протистояння, породжене чутками про сховане золото. Коли в селищі з'являється безіменний мандрівник із темним минулим, але з чудовими навичками стрільби, усі гадають, на чий бік він пристане.

Тривалість: 01:38:32
Якість: [International Cut]

Відео:
кодек:
розмір кадру: 1920 x 816
бітрейт: 10 903 кб/с

Аудіо # 1:
мова: українська
переклад: багатоголосий закадровий
кодек: AC-3 5.1
бітрейт: 448 кб/с

Аудіо # 2:
мова: англійська
переклад: оригінал
кодек: AC-3 5.1
бітрейт: 640 кб/с

Субтитри # 1: (Full)
мова: англійська
тип: програмні (м'які)
формат: *.srt


Info
Код:
General
Unique ID                                : 79794642285451277022067968827305710388 (0x3C07E39BEBE14FBF5B3316AD80135334)
Complete name                            : Sukiyaki Western Django [International Cut] (2007) 1080p [UKR_ENG] [Hurtom].
Format                                   :
Format version                           : Version 4
File size                                : 8.25 GiB
Duration                                 : 1 h 38 min
Overall bit rate                         : 12.0 Mb/s
Movie name                               : Сукіякі Вестерн Джанго / Sukiyaki Western Django (2007)
Encoded date                             : UTC 2020-03-22 12:06:00
Writing application                      : v20.0.0 ('I Am The Sun') 64-bit
Writing library                          : libebml v1.3.5 + v1.4.8
Cover                                    : Yes
Attachments                              : Cover.jpg

Video
ID                                       : 1
Format                                   : AVC
Format/Info                              : Advanced Video Codec
Format profile                           : [email protected]
Format settings                          : CABAC / 4 Ref Frames
Format settings, CABAC                   : Yes
Format settings, Reference frames        : 4 frames
Codec ID                                 : V_MPEG4/ISO/AVC
Duration                                 : 1 h 38 min
Bit rate                                 : 10.9 Mb/s
Width                                    : 1 920 pixels
Height                                   : 816 pixels
Display aspect ratio                     : 2.35:1
Frame rate mode                          : Constant
Frame rate                               : 23.976 FPS
Color space                              : YUV
Chroma subsampling                       : 4:2:0
Bit depth                                : 8 bits
Scan type                                : Progressive
Bits/(Pixel*Frame)                       : 0.290
Stream size                              : 7.50 GiB (91%)
Title                                    : Сукіякі Вестерн Джанго / Sukiyaki Western Django (2007)
Writing library                          : core 65 r1029M cb3c213
Encoding settings                        : cabac=1 / ref=4 / deblock=1:-3:-3 / analyse=0x3:0x113 / me=umh / subme=9 / psy_rd=0.9:0.0 / mixed_ref=1 / me_range=24 / chroma_me=1 / trellis=2 / 8x8dct=1 / cqm=0 / deadzone=21,11 / chroma_qp_offset=-2 / threads=6 / nr=0 / decimate=0 / mbaff=0 / bframes=3 / b_pyramid=1 / b_adapt=2 / b_bias=0 / direct=1 / wpredb=1 / keyint=250 / keyint_min=25 / scenecut=40(pre) / rc=2pass / bitrate=10902 / ratetol=1.0 / qcomp=0.60 / qpmin=8 / qpmax=51 / qpstep=4 / cplxblur=20.0 / qblur=0.5 / vbv_maxrate=50000 / vbv_bufsize=50000 / ip_ratio=1.40 / pb_ratio=1.30 / aq=1:0.70
Language                                 : English
Default                                  : Yes
Forced                                   : No

Audio #1
ID                                       : 2
Format                                   : AC-3
Format/Info                              : Audio Coding 3
Commercial name                          : Dolby Digital
Codec ID                                 : A_AC3
Duration                                 : 1 h 38 min
Bit rate mode                            : Constant
Bit rate                                 : 448 kb/s
Channel(s)                               : 6 channels
Channel layout                           : L R C LFE Ls Rs
Sampling rate                            : 48.0 kHz
Frame rate                               : 31.250 FPS (1536 SPF)
Compression mode                         : Lossy
Stream size                              : 316 MiB (4%)
Title                                    : / 5.1 Ch / 448 kbps / БЗ
Language                                 : Ukrainian
Service kind                             : Complete Main
Default                                  : Yes
Forced                                   : Yes

Audio #2
ID                                       : 3
Format                                   : AC-3
Format/Info                              : Audio Coding 3
Commercial name                          : Dolby Digital
Codec ID                                 : A_AC3
Duration                                 : 1 h 38 min
Bit rate mode                            : Constant
Bit rate                                 : 640 kb/s
Channel(s)                               : 6 channels
Channel layout                           : L R C LFE Ls Rs
Sampling rate                            : 48.0 kHz
Frame rate                               : 31.250 FPS (1536 SPF)
Compression mode                         : Lossy
Stream size                              : 451 MiB (5%)
Title                                    : / 5.1 Ch / 640 kbps / Original
Language                                 : English
Service kind                             : Complete Main
Default                                  : No
Forced                                   : No

Text
ID                                       : 4
Format                                   : UTF-8
Codec ID                                 : S_TEXT/UTF8
Codec ID/Info                            : UTF-8 Plain Text
Duration                                 : 1 h 36 min
Bit rate                                 : 20 b/s
Count of elements                        : 628
Stream size                              : 14.1 KiB (0%)
Title                                    : Full
Language                                 : English
Default                                  : No
Forced                                   : No

Menu
00:00:00.000                             : en:The Gunman
00:11:08.793                             : en:Reds & Whites
00:20:59.591                             : en:The Boy
00:30:27.158                             : en:The Tougher Man
00:42:37.805                             : en:The Arrival
00:52:10.210                             : en:Stealing The Weapon
01:00:30.752                             : en:Life is All About Goodbyes
01:07:07.273                             : en:Healing
01:10:30.768                             : en:Settle The Score
01:15:08.921                             : en:Vengenance
01:27:20.485                             : en:Final Showdown
01:35:18.003                             : en:End Credits
Світлини




Джерело: &
Особиста оцінка: 0 - не дивився


 Трекер:    Зареєстрований   

Завантажити / скачати фільм українською



відео для новачків



 Зареєстрований:   2020-03-22 16:38
 Розмір:   8.25 GB 
 Оцінка фільму:   10/10 (Голосів: 2)
   
Ваш часовий пояс: GMT + 2 Години

Нова тема   Відповісти