Людина-невидимка / The Invisible Man (2020) 720p Ukr/Eng | Sub Eng

Нові коментарі

Нова тема   Відповісти
Автор Повідомлення
Anonymous 







2020-03-22 15:43  
Людина-невидимка / The Invisible Man (2020) 720p Ukr/Eng | Sub Eng



Альтернативний постер

«Все, що ти не бачиш може тебе знищити»



Жанр: детектив, жахи, трилер, фантастика
Країна: Австралія, США, Канада, Велика Британія



Кінокомпанія: Universal Pictures, Blumhouse Productions, Goalpost Pictures
Режисер: Лі Воннел
Актори: Елізабет Мосс, Олівер Джексон-Коен, Харріет Дайер, Елдіс Ходж, Сторм Рейд, Майкл Дорман, Бенедікт Харді

Сюжет:
Опинившись у пастці відносин з багатим та геніальним вченим Едріаном Гріффіном, які обернулися жахливим насильством, Сесілія Касс тікає під покровом ночі. Незабаром її екс-бойфренд здійснює самогубство і залишає їй у спадок значну частку своїх величезних статків. Однак жінка підозрює, що його смерть була брехнею і що насправді він все ще живий. Зіткнувшись з низкою моторошних та смертельно небезпечних подій, Сесілія поступово починає божеволіти, відчайдушно намагаючись довести усім, що Едріан став невидимим і продовжує її переслідувати.


Тривалість: 02:04:23
Якість: 720p [Amazon]

Відео:
кодек:
розмір кадру: 1248 x 520
бітрейт: 1565 кб/с

Аудіо # 1:
мова: українська
переклад: професійний дубльований
кодек: 2.0
бітрейт: 192 кб/с

Аудіо # 2:
мова: англійська
переклад: оригінал
кодек: E- 5.1
бітрейт: 640 кб/с

Субтитри # 1 - 2 (Full, SDH):
мова: англійська
тип: програмні (м'які)
формат: *.srt
Info
Код:
General
Complete name                            : The Invisible Man (2020) 720p [ukr, eng] [ViDeO_Hurtom].
Format                                   :
Format version                           : Version 4
File size                                : 2.08 GiB
Duration                                 : 2 h 4 min
Overall bit rate                         : 2 399 kb/s
Movie name                               : Людина-невидимка / The Invisible Man (2020)
Encoded date                             : UTC 2020-03-22 12:26:17
Writing application                      : v30.1.0 ('Forever And More') 64-bit
Writing library                          : libebml v1.3.6 + v1.4.9
Cover                                    : Yes
Attachments                              : cover.jpg

Video
ID                                       : 1
Format                                   : AVC
Format/Info                              : Advanced Video Codec
Format profile                           : [email protected]
Format settings                          : CABAC / 4 Ref Frames
Format settings, CABAC                   : Yes
Format settings, RefFrames               : 4 frames
Codec ID                                 : V_MPEG4/ISO/AVC
Duration                                 : 2 h 4 min
Bit rate mode                            : Constant
Bit rate                                 : 1 565 kb/s
Nominal bit rate                         : 6 000 kb/s
Width                                    : 1 248 pixels
Height                                   : 520 pixels
Display aspect ratio                     : 2.40:1
Frame rate mode                          : Constant
Frame rate                               : 23.976 (24000/1001) FPS
Color space                              : YUV
Chroma subsampling                       : 4:2:0
Bit depth                                : 8 bits
Scan type                                : Progressive
Bits/(Pixel*Frame)                       : 0.101
Stream size                              : 1.36 GiB (65%)
Default                                  : Yes
Forced                                   : No
Color range                              : Limited
Color primaries                          : BT.709
Transfer characteristics                 : BT.709
Matrix coefficients                      : BT.709

Audio #1
ID                                       : 2
Format                                   : AC-3
Format/Info                              : Audio Coding 3
Commercial name                          : Dolby Digital
Codec ID                                 : A_AC3
Duration                                 : 2 h 4 min
Bit rate mode                            : Constant
Bit rate                                 : 192 kb/s
Channel(s)                               : 2 channels
Channel layout                           : L R
Sampling rate                            : 48.0 kHz
Frame rate                               : 31.250 FPS (1536 SPF)
Bit depth                                : 16 bits
Compression mode                         : Lossy
Stream size                              : 171 MiB (8%)
Title                                    : 2.0 | 192
Language                                 : Ukrainian
Service kind                             : Complete Main
Default                                  : Yes
Forced                                   : No

Audio #2
ID                                       : 3
Format                                   : E-AC-3
Format/Info                              : Enhanced AC-3
Commercial name                          : Dolby Digital Plus
Codec ID                                 : A_EAC3
Duration                                 : 2 h 4 min
Bit rate mode                            : Constant
Bit rate                                 : 640 kb/s
Channel(s)                               : 6 channels
Channel layout                           : L R C LFE Ls Rs
Sampling rate                            : 48.0 kHz
Frame rate                               : 31.250 FPS (1536 SPF)
Compression mode                         : Lossy
Stream size                              : 569 MiB (27%)
Title                                    : E- 5.1 | 640
Language                                 : English
Service kind                             : Complete Main
Default                                  : No
Forced                                   : No

Text #1
ID                                       : 4
Format                                   : UTF-8
Codec ID                                 : S_TEXT/UTF8
Codec ID/Info                            : UTF-8 Plain Text
Duration                                 : 1 h 49 min
Bit rate                                 : 33 b/s
Count of elements                        : 965
Stream size                              : 27.2 KiB (0%)
Title                                    : Full
Language                                 : English
Default                                  : No
Forced                                   : No

Text #2
ID                                       : 5
Format                                   : UTF-8
Codec ID                                 : S_TEXT/UTF8
Codec ID/Info                            : UTF-8 Plain Text
Duration                                 : 2 h 4 min
Bit rate                                 : 38 b/s
Count of elements                        : 1416
Stream size                              : 34.7 KiB (0%)
Title                                    : SDH
Language                                 : English
Default                                  : No
Forced                                   : No
Скріншоти




Джерело:
Особиста оцінка: 0 - не дивився


 Трекер:    Зареєстрований   

Завантажити / скачати фільм українською



відео для новачків



 Зареєстрований:   2020-03-22 15:43
 Розмір:   2.08 GB 
 Оцінка фільму:   8.8/10 (Голосів: 21)
   
Інші релізи
coca147 
Новенький


З нами з: 11.05.15
Востаннє: 03.04.20
Повідомлень: 20

2020-03-22 16:25  
звук моно?
mr Frankie 
Новенький


З нами з: 30.01.14
Востаннє: 03.04.20
Повідомлень: 9

2020-03-22 22:34  
Нуу так собі. Очікував іншого, якщо не девитися то ні чого і не втратиш! 😐
bortnikvadim 
Новенький


З нами з: 18.12.13
Востаннє: 03.04.20
Повідомлень: 4

2020-03-23 08:10  
Нормальний одноразовий фільмачок!!! цікавий сюжет, але трішки передбачуваний!!!
Ваш часовий пояс: GMT + 2 Години

Нова тема   Відповісти