Людина-невидимка / The Invisible Man (2020) 1080p Ukr/Eng | Sub Eng

Нові коментарі

Нова тема   Відповісти
Автор Повідомлення
Anonymous 







2020-03-22 15:23  
Людина-невидимка / The Invisible Man (2020) 1080p Ukr/Eng | Sub Eng



Альтернативний постер

«Все, що ти не бачиш може тебе знищити»



Жанр: детектив, жахи, трилер, фантастика
Країна: Австралія, США, Канада, Велика Британія



Кінокомпанія: Universal Pictures, Blumhouse Productions, Goalpost Pictures
Режисер: Лі Воннел
Актори: Елізабет Мосс, Олівер Джексон-Коен, Харріет Дайер, Елдіс Ходж, Сторм Рейд, Майкл Дорман, Бенедікт Харді

Сюжет:
Опинившись у пастці відносин з багатим та геніальним вченим Едріаном Гріффіном, які обернулися жахливим насильством, Сесілія Касс тікає під покровом ночі. Незабаром її екс-бойфренд здійснює самогубство і залишає їй у спадок значну частку своїх величезних статків. Однак жінка підозрює, що його смерть була брехнею і що насправді він все ще живий. Зіткнувшись з низкою моторошних та смертельно небезпечних подій, Сесілія поступово починає божеволіти, відчайдушно намагаючись довести усім, що Едріан став невидимим і продовжує її переслідувати.


Тривалість: 02:04:23
Якість: 1080p [Amazon]

Відео:
кодек:
розмір кадру: 1920x800
бітрейт: 3689 кб/с

Аудіо # 1:
мова: українська
переклад: професійний дубльований
кодек: 2.0
бітрейт: 192 кб/с

Аудіо # 2:
мова: англійська
переклад: оригінал
кодек: 5.1
бітрейт: 448 кб/с

Субтитри # 1 - 2 (Full, SDH):
мова: англійська
тип: програмні (м'які)
формат: *.srt
Info
Код:
General
Complete name                            : The Invisible Man (2020) 1080p [ukr, eng] [ViDeO_Hurtom].
Format                                   :
Format version                           : Version 4
File size                                : 3.76 GiB
Duration                                 : 2 h 4 min
Overall bit rate                         : 4 332 kb/s
Movie name                               : Людина-невидимка / The Invisible Man (2020)
Encoded date                             : UTC 2020-03-22 11:46:53
Writing application                      : v30.1.0 ('Forever And More') 64-bit
Writing library                          : libebml v1.3.6 + v1.4.9
Cover                                    : Yes
Attachments                              : cover.jpg

Video
ID                                       : 1
Format                                   : AVC
Format/Info                              : Advanced Video Codec
Format profile                           : [email protected]
Format settings                          : CABAC / 4 Ref Frames
Format settings, CABAC                   : Yes
Format settings, RefFrames               : 4 frames
Codec ID                                 : V_MPEG4/ISO/AVC
Duration                                 : 2 h 4 min
Bit rate mode                            : Constant
Bit rate                                 : 3 689 kb/s
Nominal bit rate                         : 10 000 kb/s
Width                                    : 1 920 pixels
Height                                   : 800 pixels
Display aspect ratio                     : 2.40:1
Frame rate mode                          : Constant
Frame rate                               : 23.976 (24000/1001) FPS
Color space                              : YUV
Chroma subsampling                       : 4:2:0
Bit depth                                : 8 bits
Scan type                                : Progressive
Bits/(Pixel*Frame)                       : 0.100
Stream size                              : 3.21 GiB (85%)
Language                                 : English
Default                                  : Yes
Forced                                   : No
Color range                              : Limited
Color primaries                          : BT.709
Transfer characteristics                 : BT.709
Matrix coefficients                      : BT.709

Audio #1
ID                                       : 2
Format                                   : AC-3
Format/Info                              : Audio Coding 3
Commercial name                          : Dolby Digital
Codec ID                                 : A_AC3
Duration                                 : 2 h 4 min
Bit rate mode                            : Constant
Bit rate                                 : 192 kb/s
Channel(s)                               : 2 channels
Channel layout                           : L R
Sampling rate                            : 48.0 kHz
Frame rate                               : 31.250 FPS (1536 SPF)
Bit depth                                : 16 bits
Compression mode                         : Lossy
Stream size                              : 171 MiB (4%)
Title                                    : 2.0 | 192
Language                                 : Ukrainian
Service kind                             : Complete Main
Default                                  : Yes
Forced                                   : No

Audio #2
ID                                       : 3
Format                                   : AC-3
Format/Info                              : Audio Coding 3
Commercial name                          : Dolby Digital
Codec ID                                 : A_AC3
Duration                                 : 2 h 4 min
Bit rate mode                            : Constant
Bit rate                                 : 448 kb/s
Channel(s)                               : 6 channels
Channel layout                           : L R C LFE Ls Rs
Sampling rate                            : 48.0 kHz
Frame rate                               : 31.250 FPS (1536 SPF)
Bit depth                                : 16 bits
Compression mode                         : Lossy
Stream size                              : 399 MiB (10%)
Title                                    : 5.1 | 448
Language                                 : English
Service kind                             : Complete Main
Default                                  : No
Forced                                   : No

Text #1
ID                                       : 4
Format                                   : UTF-8
Codec ID                                 : S_TEXT/UTF8
Codec ID/Info                            : UTF-8 Plain Text
Duration                                 : 1 h 49 min
Bit rate                                 : 33 b/s
Count of elements                        : 965
Stream size                              : 27.2 KiB (0%)
Title                                    : Full
Language                                 : English
Default                                  : No
Forced                                   : No

Text #2
ID                                       : 5
Format                                   : UTF-8
Codec ID                                 : S_TEXT/UTF8
Codec ID/Info                            : UTF-8 Plain Text
Duration                                 : 2 h 4 min
Bit rate                                 : 38 b/s
Count of elements                        : 1416
Stream size                              : 34.7 KiB (0%)
Title                                    : SDH
Language                                 : English
Default                                  : No
Forced                                   : No
Скріншоти






Джерело:
Особиста оцінка: 0 - не дивився


 Трекер:    Зареєстрований   

Завантажити / скачати фільм українською



відео для новачків



 Зареєстрований:   2020-03-22 15:23
 Розмір:   3.76 GB 
 Оцінка фільму:   9.1/10 (Голосів: 56)
   
Інші релізи
vadyuha47 
Новенький


З нами з: 17.03.19
Востаннє: 31.03.20
Повідомлень: 1

2020-03-23 17:37  
Дякую!
Demetros33 
Новенький


З нами з: 15.04.13
Востаннє: 23.03.20
Повідомлень: 2

2020-03-23 20:32  
Дякую !!! Зара переглянемо всією сім*єю , всі на карантині
hlor13 
Новенький


З нами з: 15.09.16
Востаннє: 01.04.20
Повідомлень: 1

2020-03-24 22:04  
хороше кіно...
Wensun 
Поважний учасник


З нами з: 20.01.09
Востаннє: 03.04.20
Повідомлень: 161

2020-03-24 22:05  
підтримую. ! 10/10
baltazar_ua 
Новенький


З нами з: 04.12.17
Востаннє: 29.03.20
Повідомлень: 7

2020-03-25 14:37  
вартий уваги!
Kamper 
Свій


З нами з: 21.01.13
Востаннє: 03.04.20
Повідомлень: 83

2020-03-25 23:42  
Понуре феміністично-толерастичне безглуздя. Добре, що в кінотеатр не ходив.
therazer 
Новенький


З нами з: 29.06.16
Востаннє: 03.04.20
Повідомлень: 9

2020-03-29 01:50  
Підтримую Кампера. Абсолютна ултрафеміністична фігня. Чоловіки або мудаки або нездатні нінащо і вкінці жінка фігурально відрізає яйця свойому гвалтівнику. Використали славу класичної історії Велса, вихолостивши її до назви. Вкрали назву натякаючи на Веллса, а насправді нічого нема. Дно.
Ваш часовий пояс: GMT + 2 Години

Нова тема   Відповісти