Людина-невидимка / The Invisible Man (2020) 1080p Ukr/Eng | Sub Eng

Нові коментарі

Нова тема   Відповісти
Автор Повідомлення
Anonymous 







2020-03-22 14:23  
Людина-невидимка / The Invisible Man (2020) 1080p Ukr/Eng | Sub Eng



Альтернативний постер

«Все, що ти не бачиш може тебе знищити»



Жанр: детектив, жахи, трилер, фантастика
Країна: Австралія, США, Канада, Велика Британія



Кінокомпанія: Universal Pictures, Blumhouse Productions, Goalpost Pictures
Режисер: Лі Воннел
Актори: Елізабет Мосс, Олівер Джексон-Коен, Харріет Дайер, Елдіс Ходж, Сторм Рейд, Майкл Дорман, Бенедікт Харді

Сюжет:
Опинившись у пастці відносин з багатим та геніальним вченим Едріаном Гріффіном, які обернулися жахливим насильством, Сесілія Касс тікає під покровом ночі. Незабаром її екс-бойфренд здійснює самогубство і залишає їй у спадок значну частку своїх величезних статків. Однак жінка підозрює, що його смерть була брехнею і що насправді він все ще живий. Зіткнувшись з низкою моторошних та смертельно небезпечних подій, Сесілія поступово починає божеволіти, відчайдушно намагаючись довести усім, що Едріан став невидимим і продовжує її переслідувати.


Тривалість: 02:04:23
Якість: 1080p

Відео:
кодек:
розмір кадру: 1920 x 804
бітрейт: ~ 13800 кб/с

Аудіо # 1:
мова: українська
переклад: професійний дубльований | студія LeDoyen
кодек: 5.1
бітрейт: 384 кб/с

Аудіо # 2:
мова: англійська
переклад: оригінал
кодек: 5.1
бітрейт: 448 кб/с

Субтитри # 1 (Forced):
мова: українська
тип: програмні (м'які)
формат: *.srt

Субтитри # 2 - 3 (Full, SDH):
мова: англійська
тип: програмні (м'які)
формат: *.srt
Info
Код:
General
Complete name                            : The Invisible Man (2020) 1080p [Ukr_Eng] [Video_Hurtom].
Format                                   :
Format version                           : Version 4
File size                                : 12.8 GiB
Duration                                 : 2 h 4 min
Overall bit rate                         : 14.7 Mb/s
Movie name                               : Людина-невидимка / The Invisible Man (2020)
Encoded date                             : UTC 2020-06-25 21:25:23
Writing application                      : v30.1.0 ('Forever And More') 64-bit
Writing library                          : libebml v1.3.6 + v1.4.9
Cover                                    : Yes
Attachments                              : cover.jpg

Video
ID                                       : 1
Format                                   : AVC
Format/Info                              : Advanced Video Codec
Format profile                           : [email protected]
Format settings                          : CABAC / 4 Ref Frames
Format settings, CABAC                   : Yes
Format settings, RefFrames               : 4 frames
Codec ID                                 : V_MPEG4/ISO/AVC
Duration                                 : 2 h 4 min
Bit rate                                 : 13.8 Mb/s
Width                                    : 1 920 pixels
Height                                   : 804 pixels
Display aspect ratio                     : 2.40:1
Frame rate mode                          : Constant
Frame rate                               : 23.976 (24000/1001) FPS
Color space                              : YUV
Chroma subsampling                       : 4:2:0
Bit depth                                : 8 bits
Scan type                                : Progressive
Bits/(Pixel*Frame)                       : 0.374
Stream size                              : 12.0 GiB (94%)
Title                                    : CHD
Writing library                          : core 157 r2867+150 7e91e0e t_mod_Custom_2 [[email protected] X86_64]
Encoding settings                        : cabac=1 / ref=4 / deblock=1:-3:-3 / analyse=0x3:0x133 / me=umh / subme=11 / psy=1 / fade_compensate=0.00 / psy_rd=0.90:0.10 / mixed_ref=1 / me_range=64 / chroma_me=1 / trellis=2 / 8x8dct=1 / cqm=0 / deadzone=21,11 / fast_pskip=0 / chroma_qp_offset=-4 / threads=25 / lookahead_threads=4 / sliced_threads=0 / nr=0 / decimate=1 / interlaced=0 / bluray_compat=0 / constrained_intra=0 / fgo=0 / bframes=8 / b_pyramid=2 / b_adapt=2 / b_bias=0 / direct=3 / weightb=1 / open_gop=0 / weightp=2 / keyint=250 / keyint_min=23 / scenecut=40 / intra_refresh=0 / rc_lookahead=60 / rc=crf / mbtree=0 / crf=18.0000 / qcomp=0.70 / qpmin=0:0:0 / qpmax=69:69:69 / qpstep=4 / vbv_maxrate=35000 / vbv_bufsize=35000 / crf_max=0.0 / nal_hrd=none / filler=0 / ip_ratio=1.40 / pb_ratio=1.30 / aq=3:1.00 / aq-sensitivity=10.00 / aq-factor=1.00:1.00:1.00 / aq2=0 / aq3=0
Language                                 : English
Default                                  : Yes
Forced                                   : No

Audio #1
ID                                       : 2
Format                                   : AC-3
Format/Info                              : Audio Coding 3
Commercial name                          : Dolby Digital
Codec ID                                 : A_AC3
Duration                                 : 2 h 4 min
Bit rate mode                            : Constant
Bit rate                                 : 384 kb/s
Channel(s)                               : 6 channels
Channel layout                           : L R C LFE Ls Rs
Sampling rate                            : 48.0 kHz
Frame rate                               : 31.250 FPS (1536 SPF)
Bit depth                                : 16 bits
Compression mode                         : Lossy
Stream size                              : 342 MiB (3%)
Title                                    : 5.1 | 384
Language                                 : Ukrainian
Service kind                             : Complete Main
Default                                  : Yes
Forced                                   : No

Audio #2
ID                                       : 3
Format                                   : AC-3
Format/Info                              : Audio Coding 3
Commercial name                          : Dolby Digital
Codec ID                                 : A_AC3
Duration                                 : 2 h 4 min
Bit rate mode                            : Constant
Bit rate                                 : 448 kb/s
Channel(s)                               : 6 channels
Channel layout                           : L R C LFE Ls Rs
Sampling rate                            : 48.0 kHz
Frame rate                               : 31.250 FPS (1536 SPF)
Bit depth                                : 16 bits
Compression mode                         : Lossy
Stream size                              : 399 MiB (3%)
Title                                    : 5.1 | 448
Language                                 : English
Service kind                             : Complete Main
Default                                  : No
Forced                                   : No

Text #1
ID                                       : 4
Format                                   : UTF-8
Codec ID                                 : S_TEXT/UTF8
Codec ID/Info                            : UTF-8 Plain Text
Duration                                 : 1 h 45 min
Bit rate                                 : 0 b/s
Count of elements                        : 12
Stream size                              : 586 Bytes (0%)
Title                                    : Forced
Language                                 : Ukrainian
Default                                  : Yes
Forced                                   : No

Text #2
ID                                       : 5
Format                                   : UTF-8
Codec ID                                 : S_TEXT/UTF8
Codec ID/Info                            : UTF-8 Plain Text
Duration                                 : 1 h 49 min
Bit rate                                 : 33 b/s
Count of elements                        : 965
Stream size                              : 26.8 KiB (0%)
Title                                    : Full
Language                                 : English
Default                                  : No
Forced                                   : No

Text #3
ID                                       : 6
Format                                   : UTF-8
Codec ID                                 : S_TEXT/UTF8
Codec ID/Info                            : UTF-8 Plain Text
Duration                                 : 2 h 4 min
Bit rate                                 : 43 b/s
Count of elements                        : 1416
Stream size                              : 39.3 KiB (0%)
Title                                    : SDH
Language                                 : English
Default                                  : No
Forced                                   : No

Menu
00:00:00.000                             : en:
00:11:05.748                             : en:
00:16:09.135                             : en:
00:19:16.322                             : en:
00:25:27.651                             : en:
00:35:52.233                             : en:
00:39:50.179                             : en:
00:46:35.459                             : en:
00:52:41.867                             : en:
01:01:22.012                             : en:
01:08:59.802                             : en:
01:14:49.735                             : en:
01:19:23.926                             : en:
01:24:46.540                             : en:
01:30:25.337                             : en:
01:35:24.928                             : en:
01:39:33.342                             : en:
01:43:04.220                             : en:
01:48:54.695                             : en:
01:53:38.812                             : en:
Скріншоти


Джерело: &
Особиста оцінка: 0 - не дивився


 Трекер:    Зареєстрований   

Завантажити / скачати фільм українською



відео для новачків



 Зареєстрований:   2020-06-26 10:48
 Розмір:   12.76 GB 
 Оцінка фільму:   8.5/10 (Голосів: 97)
   
vadyuha47 
Новенький


З нами з: 17.03.19
Востаннє: 13.01.21
Повідомлень: 1

2020-03-23 16:37  
Дякую!
Demetros33 
Новенький


З нами з: 15.04.13
Востаннє: 01.01.21
Повідомлень: 2

2020-03-23 19:32  
Дякую !!! Зара переглянемо всією сім*єю , всі на карантині
hlor13 
Новенький


З нами з: 15.09.16
Востаннє: 20.01.21
Повідомлень: 4

2020-03-24 21:04  
хороше кіно...
Wensun 
Поважний учасник


З нами з: 20.01.09
Востаннє: 23.01.21
Повідомлень: 201

2020-03-24 21:05  
підтримую. ! 10/10
baltazar_ua 
Новенький


З нами з: 04.12.17
Востаннє: 24.01.21
Повідомлень: 10

2020-03-25 13:37  
вартий уваги!
Kamper 
Свій


З нами з: 21.01.13
Востаннє: 23.01.21
Повідомлень: 88

2020-03-25 22:42  
Понуре феміністично-толерастичне безглуздя. Добре, що в кінотеатр не ходив.
therazer 
Новенький


З нами з: 29.06.16
Востаннє: 23.01.21
Повідомлень: 19

2020-03-29 00:50  
Підтримую Кампера. Абсолютна ултрафеміністична фігня. Чоловіки або мудаки або нездатні нінащо і вкінці жінка фігурально відрізає яйця свойому гвалтівнику. Використали славу класичної історії Велса, вихолостивши її до назви. Вкрали назву натякаючи на Веллса, а насправді нічого нема. Дно.
Doe89 
Новенький


З нами з: 26.10.14
Востаннє: 03.01.21
Повідомлень: 1

2020-04-04 15:16  
Слоган на постері сміливо можна віднести до коронавірусу.
ron_ 
Частий відвідувач


З нами з: 03.02.11
Востаннє: 12.01.21
Повідомлень: 39

2020-04-05 01:46  
хороший фільм.
roma_34 
Новенький


З нами з: 26.05.12
Востаннє: 24.01.21
Повідомлень: 4

2020-04-12 12:06  
Kamper написано:
лерастичне безглуздя. Добре, що в кінотеатр не ходив.

Погоджуюсь(

xeno 
Новенький


З нами з: 28.03.17
Востаннє: 23.01.21
Повідомлень: 17

2020-04-13 00:25  
Дуже сподобався фільм і його дубляж. Дякую всім на Толоці, хто долучився до релізу.

Увага — спойлер:
У розв'язці, здається, великий ляп.

Де вона взяла той костюм-невидимку, щоб убити Едріана? Зняла з його брата у вітальні? Але ж він після пострілів не працював (не кажучи вже, що поліція давно мала його конфіскувати), а також, коли вона прийшла в дім Едріана, вона була голіруч, без сумки. Знайшла в нього вдома іще один екземпляр? Яким чином так швидко? І чи могла вона знати, що він існує? Звісно, можна логічно пропустити, що позаяк один він оддав братові, то існує ще другий. Але де його вона знайшла? Едріан же не дурень, щоб тримати його в тій самій камері з тим самим PIN-кодом.

webracer 
Новенький


З нами з: 11.09.10
Востаннє: 17.10.20
Повідомлень: 10

2020-04-18 23:46  
Непоганий фільм. Тримає в напрузі.
lazey 
Новенький


З нами з: 05.03.09
Востаннє: 24.01.21
Повідомлень: 15

2020-04-24 19:33  
Капець яка фігня... Попередня Людина-Невидимка (Hollow Man з Беконом) просто на порядок кращий. Я у шоці, як можна сюжет зробити таким примітивним??

Не рекомендую витрачати час. Краще передивитися той же Hollow Man

tgb 
Свій


З нами з: 31.08.12
Востаннє: 15.01.21
Повідомлень: 70

2020-04-25 08:25  
іфільм на раз. головна акторка просто жах і зовнішність і гра. сценарій слабкий теж
Cartwright 
VIP


З нами з: 23.03.13
Востаннє: 25.01.21
Повідомлень: 428

2020-05-01 03:37  
xeno написано:
У розв'язці, здається, великий ляп.

Немає там ніякого ляпу. Вона знайшла його і переховала, коли їздила додому на Убері.

ВАВУНЯ 
VIP


З нами з: 30.06.15
Востаннє: 24.01.21
Повідомлень: 300

2020-05-01 13:49  
Cartwright
ховайте свої "спойлери" під спойлер.

Cartwright 
VIP


З нами з: 23.03.13
Востаннє: 25.01.21
Повідомлень: 428

2020-05-01 15:10  
ВАВУНЯ написано:
ховайте свої "спойлери" під спойлер.

Так це і не спойлер. Я відповів завуальовано.

Едм 
VIP


З нами з: 18.05.08
Востаннє: 24.01.21
Повідомлень: 1253

2020-05-03 02:48  
Якби фільм такої якості сценарію вийшов в Україні то всі кричали "ганьба", а тут, що не американське то все цукерка.

Дубляж чудовий

O_omarella! 
Поважний учасник


З нами з: 14.06.13
Востаннє: 16.01.21
Повідомлень: 199

2020-05-05 19:18  
Не поганий фільм.
цілий фільм думав так їй і треба, але кінець так залажав

kalynevych 
Новенький


З нами з: 18.11.11
Востаннє: 08.01.21
Повідомлень: 15

2020-05-09 21:09  
гарний фільм
Anonymous 







2020-05-15 19:38  
Заміна відео на 
takispravi2 
Новенький


З нами з: 15.01.20
Востаннє: 07.01.21
Повідомлень: 3

2020-05-16 09:16  
не вартий витраченого часу
hitmanhunter 
Поважний учасник


З нами з: 15.09.16
Востаннє: 24.01.21
Повідомлень: 246

2020-05-23 19:43  
окрім простоти сюжету, у мене ще питання - ну хоч трошки красивішої актриси не знайшлося?
6/10

sersach 
Новенький


З нами з: 26.08.12
Востаннє: 24.01.21
Повідомлень: 6

2020-05-27 18:28  
фільм не сподобався. актриса особливо
Anonymous 







2020-06-26 10:49  
Заміна аудіо на якісніше.
Onemon 
Новенький


З нами з: 04.07.19
Востаннє: 24.01.21
Повідомлень: 3

2020-07-19 12:41  
давно такого лайна не дивився...коли писали сценарій, напевно думали, що будуть дивитися суто барани
SHEVA2018 
Свій


З нами з: 24.09.18
Востаннє: 25.01.21
Повідомлень: 54

2021-01-04 09:41  
Ну таке кіно. Наче і нормальне, а в той же час головна героїня своєю тупістю вбиває!
Вбий його відразу, а не гасай по всьому місту як обісрана!!! В кінці класно йому горлянку відчикрижила!!! Помстилася за сестру!
Ховайте сюжетні подробиці під спойлер!

boombyte 
Поважний учасник


З нами з: 12.04.14
Востаннє: 24.01.21
Повідомлень: 194

2021-01-16 17:45  
Опинившись у пастці відносин з багатим та геніальним вченим---може стосунків?
+багатим та геніальним вченим---він би знайшов собі красивішу).
Не дивився. Трейлеру вистачило. Ще й рейтинг ібмбдбм 7+...Жесть.

Ваш часовий пояс: GMT + 2 Години

Нова тема   Відповісти