Джейк і пірати з Небувалії / Jake and the Never Land Pirates (Сезон 2, серії 12 з 35) (2012) HDTV 1080i

Нові коментарі

Нова тема   Відповісти
Автор Повідомлення
sergiyko.5 
Забанено
Забанено


З нами з: 25.02.16
Востаннє: 29.10.20
Повідомлень: 3648

2020-03-21 17:15  


Джейк і пірати з Небувалії / Jake and the Never Land Pirates (Сезон 2) (2012) HDTV 1080i

Джейк і пірати з Небувалії / Jake and the Never Land Pirates (Сезон 2, серії 12 з 35) (2012) HDTV 1080i

Жанр: мультсеріал, пригоди, комедія
Країна: США
Кінокомпанія: Disney
Режисер: Келлі Уорд, Хауі Паркінс, Мікі Коркоран

Сюжет:
Разом з Джейком, Іззі, Каббі та папугою Скаллі на борту надійного корабля "Швидкий" тебе чекають пригоди в болотних трясовинах і чарівних джунглях. Допомагай піратам і шукай втрачені скарби, але остерігайся Капітана Гака! Разом зі своїм вірним помічником, Гак створює перешкоди на шляху Джейка. Щоб провчити його, знадобиться згуртована команда, кмітливий розум і навіть чарівний пилок фей!




Тривалість: 1 серія: 23:05 (цілком серій: 12 з 35)

Якість: HDTV

Відео: кодек: розмір кадру: 1920 x 1080 бітрейт: 4300 кб/с
Аудіо: мова: українська переклад: професійний дубльований кодек: 2.0 бітрейт: 192 кб/с
Озвучення:
Перелік серій:
01. Bucky's Anchor Aweigh-The Never Rainbow
02. Peter's Musical Pipes-The Never Night Star
03. Race Around Rock-Captain Hook is Missing
04. Captain Hook's Hooks-Mr. Smee's Pet
05 Пустельні пірати - Велика піратська піраміда
06. Mama Hook Knows Best-Pixie Dust Away
07 Лагуна капітана Гака - Підводний Баккі
08 Перо в капелюсі капітана - Китова історія
09 Русалчина пісня - Скарб відпливу
10. The Mermaid\'s Song-Treasure of the Tides

13.1. Jake Saves Bucky. Part 1
13.2. Jake Saves Bucky. Part 2
Про файл:
General
Unique ID : 125862677201529129225227156915687415656 (0x5EB045178824DB2E3B88B4714A565F68)
Complete name : D:\Documents\Torrents\Rizne\Jake and the Never Land Pirates HDTV 1080p\Jake and the Never Land Pirates S02 HDTV 1080p\S02E01.Bucky's Anchor Aweigh-The Never Rainbow.HDTV.1080p.
Format :
Format version : Version 4
File size : 746 MiB
Duration : 23 min 3 s
Overall bit rate : 4 521 kb/s
Movie name : Jake and the Never Land Pirates S02 HDTV 1080p by sergiyko
Encoded date : UTC 2020-03-21 13:52:54
Writing application : v44.0.0 ('Domino') 64-bit
Writing library : libebml v1.3.10 + v1.5.2

Video
ID : 1
Format : AVC
Format/Info : Advanced Video Codec
Format profile : [email protected]
Format settings : CABAC / 3 Ref Frames
Format settings, CABAC : Yes
Format settings, Reference : 3 frames
Codec ID : V_MPEG4/ISO/AVC
Duration : 23 min 3 s
Bit rate : 4 327 kb/s
Width : 1 920 pixels
Height : 1 080 pixels
Display aspect ratio : 16:9
Frame rate mode : Constant
Frame rate : 25.000 FPS
Color space : YUV
Chroma subsampling : 4:2:0
Bit depth : 8 bits
Scan type : MBAFF
Scan type, store method : Interleaved fields
Scan order : Top Field First
Bits/(Pixel*Frame) : 0.083
Stream size : 714 MiB (96%)
Title : S02E01.Bucky's Anchor Aweigh-The Never Rainbow
Language : English
Default : Yes
Forced : No

Audio
ID : 2
Format : AC-3
Format/Info : Audio Coding 3
Commercial name : Dolby Digital
Codec ID : A_AC3
Duration : 23 min 3 s
Bit rate mode : Constant
Bit rate : 192 kb/s
Channel(s) : 2 channels
Channel layout : L R
Sampling rate : 48.0 kHz
Frame rate : 31.250 FPS (1536 SPF)
Compression mode : Lossy
Delay relative to video : -120 ms
Stream size : 31.7 MiB (4%)
Title : DUB 2ch | ПлюсПлюс
Language : Ukrainian
Service kind : Complete Main
Default : Yes
Forced : No
Скріншоти:


Запис/зведення: sergiyko


Бронзовий реліз (на рейтинг впливає 75% завантаженого)
 Трекер:    Зареєстрований   

Завантажити / скачати мультфільм українською



відео для новачків



 Зареєстрований:   2020-03-21 17:15
 Розмір:   8.8 GB 
 Оцінка мультсеріалу:   10/10 (Голосів: 4)
   
Andruxa85 
Новенький


З нами з: 21.01.20
Востаннє: 16.04.21
Повідомлень: 19

2020-06-04 11:56  
продовження не буде?
Дякую

sergiyko.5 
Забанено
Забанено


З нами з: 25.02.16
Востаннє: 29.10.20
Повідомлень: 3648

2020-06-04 12:13  
Andruxa85 написано:

продовження не буде?
Дякую

Буде. Пишу відео.

Ваш часовий пояс: GMT + 2 Години

Нова тема   Відповісти