Привіт сім'ї (Камінь сім’ї Стоунів) / The Family Stone (2005) 1080p Ukr/Eng | Sub Eng

Нові коментарі

Нова тема   Відповісти
Автор Повідомлення
Anonymous 







2020-03-21 15:31  
Привіт сім'ї (Камінь сім’ї Стоунів) / The Family Stone (2005) 1080p Ukr/Eng | Sub Eng

Привіт сім'ї (Камінь сім’ї Стоунів) / The Family Stone (2005) 1080p Ukr/Eng | Sub Eng


Жанр: драма, комедія, мелодрама
Країна: США
Кінокомпанія: The Family Stone, Fox 2000 Pictures, Michael London Productions
Режисер: Томас Безуча / Thomas Bezucha
Актори: Сара Джессіка Паркер, Дермот Малруні, Дайан Кітон, Клер Дейнс, Рейчел МакАдамс, Люк Вілсон, Крейг Т. Нельсон, Тайрон Джордано, Брайан Дж. Уайт, Елізабет Різер

Сюжет:
Стоуни вирізняються "рідкісною єдністю і взаєморозумінням". Коли синок Еверетт приводить у дім наречену Мередіт, ексцентрична сімейка постановляє оголосити молодим рішучу незгоду. Закохані звертаються до сестри Джулі, проте це тільки ускладнює ситуацію. Аніскільки не поліпшує її і глухий братик-ґей Тед – навіть попри те, що лише він, єдиний окрім Еверетта, не почуває ненависти до Мередіт...

Тривалість: 01:43:17
Якість:

Відео:
кодек:
розмір кадру: 1920 x 1080
бітрейт: 13 003 кб/с

Аудіо # 1:
мова: українська
переклад: професійний дубльований
кодек: AC-3 5.1
бітрейт: 448 кб/с

Аудіо # 2:
мова: англійська
переклад: оригінал
кодек: E-AC-3 5.1
бітрейт: 640 кб/с

Субтитри # 1: (Full)
мова: англійська
тип: програмні (м'які)
формат: *.srt


Info
Код:
General
Unique ID                                : 316920684484724449941561437651546921359 (0xEE6CB420BBEF2F35B5352FC07D2FD98F)
Complete name                            : The Family Stone (2005) 1080p [UKR_ENG] [Hurtom].
Format                                   :
Format version                           : Version 4
File size                                : 10.2 GiB
Duration                                 : 1 h 43 min
Overall bit rate mode                    : Variable
Overall bit rate                         : 14.1 Mb/s
Movie name                               : Привіт сім'ї (Камінь сім’ї Стоунів) / The Family Stone (2005)
Encoded date                             : UTC 2020-03-21 13:21:12
Writing application                      : v20.0.0 ('I Am The Sun') 64-bit
Writing library                          : libebml v1.3.5 + v1.4.8
Cover                                    : Yes
Attachments                              : Cover.jpg

Video
ID                                       : 1
Format                                   : AVC
Format/Info                              : Advanced Video Codec
Format profile                           : [email protected]
Format settings                          : CABAC / 4 Ref Frames
Format settings, CABAC                   : Yes
Format settings, Reference frames        : 4 frames
Codec ID                                 : V_MPEG4/ISO/AVC
Duration                                 : 1 h 43 min
Bit rate mode                            : Variable
Bit rate                                 : 13.0 Mb/s
Maximum bit rate                         : 15.0 Mb/s
Width                                    : 1 920 pixels
Height                                   : 1 080 pixels
Display aspect ratio                     : 16:9
Frame rate mode                          : Constant
Frame rate                               : 23.976 (24000/1001) FPS
Color space                              : YUV
Chroma subsampling                       : 4:2:0
Bit depth                                : 8 bits
Scan type                                : Progressive
Bits/(Pixel*Frame)                       : 0.262
Stream size                              : 9.38 GiB (92%)
Title                                    : Привіт сім'ї (Камінь сім’ї Стоунів) / The Family Stone (2005)
Writing library                          : core 148 r2623 d5b2374
Encoding settings                        : cabac=1 / ref=4 / deblock=1:-1:-1 / analyse=0x3:0x133 / me=umh / subme=9 / psy=1 / psy_rd=1.00:0.15 / mixed_ref=1 / me_range=24 / chroma_me=1 / trellis=2 / 8x8dct=1 / cqm=0 / deadzone=21,11 / fast_pskip=1 / chroma_qp_offset=-3 / threads=34 / lookahead_threads=5 / sliced_threads=0 / nr=150 / decimate=1 / interlaced=0 / bluray_compat=0 / constrained_intra=0 / bframes=8 / b_pyramid=2 / b_adapt=2 / b_bias=0 / direct=3 / weightb=1 / open_gop=0 / weightp=2 / keyint=120 / keyint_min=61 / scenecut=0 / intra_refresh=0 / rc_lookahead=120 / rc=crf / mbtree=1 / crf=18.0 / qcomp=0.60 / qpmin=0 / qpmax=69 / qpstep=4 / vbv_maxrate=15000 / vbv_bufsize=31250 / crf_max=0.0 / nal_hrd=vbr / filler=0 / ip_ratio=1.40 / aq=3:1.00
Default                                  : No
Forced                                   : No
Color range                              : Limited
Color primaries                          : BT.709
Transfer characteristics                 : BT.709
Matrix coefficients                      : BT.709

Audio #1
ID                                       : 2
Format                                   : AC-3
Format/Info                              : Audio Coding 3
Commercial name                          : Dolby Digital
Codec ID                                 : A_AC3
Duration                                 : 1 h 43 min
Bit rate mode                            : Constant
Bit rate                                 : 448 kb/s
Channel(s)                               : 6 channels
Channel layout                           : L R C LFE Ls Rs
Sampling rate                            : 48.0 kHz
Frame rate                               : 31.250 FPS (1536 SPF)
Compression mode                         : Lossy
Stream size                              : 331 MiB (3%)
Title                                    : / 5.1 Ch / 448 kbps / ПД / 1+1
Language                                 : Ukrainian
Service kind                             : Complete Main
Default                                  : Yes
Forced                                   : Yes

Audio #2
ID                                       : 3
Format                                   : E-AC-3
Format/Info                              : Enhanced AC-3
Commercial name                          : Dolby Digital Plus
Codec ID                                 : A_EAC3
Duration                                 : 1 h 43 min
Bit rate mode                            : Constant
Bit rate                                 : 640 kb/s
Channel(s)                               : 6 channels
Channel layout                           : L R C LFE Ls Rs
Sampling rate                            : 48.0 kHz
Frame rate                               : 31.250 FPS (1536 SPF)
Compression mode                         : Lossy
Stream size                              : 473 MiB (5%)
Title                                    : E- / 5.1 Ch / 640 kbps / Original
Language                                 : English
Service kind                             : Complete Main
Default                                  : No
Forced                                   : No

Text
ID                                       : 4
Format                                   : UTF-8
Codec ID                                 : S_TEXT/UTF8
Codec ID/Info                            : UTF-8 Plain Text
Duration                                 : 1 h 42 min
Bit rate                                 : 49 b/s
Count of elements                        : 1081
Stream size                              : 36.9 KiB (0%)
Title                                    : Full
Language                                 : English
Default                                  : Yes
Forced                                   : No
Світлини




Джерело: &
Особиста оцінка: 0 - не дивився


 Трекер:    Зареєстрований   

Завантажити / скачати фільм українською



відео для новачків



 Зареєстрований:   2020-03-21 15:31
 Розмір:   10.17 GB 
 Оцінка фільму:   7.3/10 (Голосів: 4)
   
AlexSmith77 
Новенький


З нами з: 28.06.18
Востаннє: 10.01.21
Повідомлень: 3

2021-01-02 11:16  
Чудовий теплий фільм!
Ваш часовий пояс: GMT + 2 Години

Нова тема   Відповісти