Зоряні війни: Скайвокер. Сходження / Star Wars: Episode IX - The Rise of Skywalker (2019) 1080p Ukr/Eng | Sub Eng

Нові коментарі

Нова тема   Відповісти
Автор Повідомлення
Anonymous 







2020-03-21 16:22  


Зоряні війни: Скайвокер. Сходження / Star Wars: Episode IX - The Rise of Skywalker (2019) 1080p Ukr/Eng | Sub Eng



«Every Generation Has A Legend»



Зоряні війни: Скайвокер. Сходження / Star Wars: Episode IX - The Rise of Skywalker (2019) 1080p Ukr/Eng | Sub Eng



Жанр: пригоди, фантастика, екшн
Країна: США











Кінокомпанія: Walt Disney Pictures, Bad Robot, Lucasfilm Ltd.
Режисер: Джей Джей Абрамс
Актори: Дейзі Рідлі, Адам Драйвер, Керрі Фішер, Марк Хемілл, Джон Бойега, Оскар Айзек, Ентоні Деніелс, Наомі Акі, Донал Глісон, Річард Е. Грант


Сюжет:
Багато років тому ми вперше перенеслися в далеку галактику, із якою прожили чимало подій. Й ось настав той момент, коли все це підходить до свого завершення. Рей продовжує свій шлях, свою боротьбу. На ній лежить великий тягар відповідальності, адже від неї залежить доля всієї галактики. У неї є сила та люди, які готові піти за дівчиною. Грандіозна історія родини Скайвокерів підходить до свого завершення, нас чекає епічний фінал епічної саги.



Тривалість: 02:21:02
Якість: 1080p

Відео:
кодек:
розмір кадру: 1920x804
бітрейт: ~12100 кб/с

Аудіо # 1:
мова: українська
переклад: професійний дубльований
кодек: 5.1
бітрейт: 1536 кб/с

Аудіо # 2:
мова: українська
переклад: професійний дубльований
кодек: 5.1
бітрейт: 640 кб/с

Аудіо # 3:
мова: англійська
переклад: оригінал
кодек: 5.1
бітрейт: 640 кб/с

Субтитри: (Forced)
мова: українська (Окремо)
тип: програмні (м'які) (Завантажити # 1) | (Завантажити # 2)
формат: *.srt

Субтитри # 1-2: (Full, SDH)
мова: англійська
тип: програмні (м'які)
формат: *.srt

Info
Код:
General
Complete name                            : Star Wars Episode IX - The Rise of Skywalker (2019) 1080p [Ukr_Eng] [Video_Hurtom].
Format                                   :
Format version                           : Version 4
File size                                : 14.8 GiB
Duration                                 : 2 h 21 min
Overall bit rate                         : 14.9 Mb/s
Movie name                               : Зоряні війни: Скайвокер. Сходження / Star Wars: Episode IX - The Rise of Skywalker (2019)
Encoded date                             : UTC 2020-03-21 12:47:08
Writing application                      : v30.1.0 ('Forever And More') 64-bit
Writing library                          : libebml v1.3.6 + v1.4.9
Cover                                    : Yes
Attachments                              : cover.jpg

Video
ID                                       : 1
Format                                   : AVC
Format/Info                              : Advanced Video Codec
Format profile                           : [email protected]
Format settings                          : CABAC / 5 Ref Frames
Format settings, CABAC                   : Yes
Format settings, RefFrames               : 5 frames
Codec ID                                 : V_MPEG4/ISO/AVC
Duration                                 : 2 h 21 min
Bit rate                                 : 12.1 Mb/s
Width                                    : 1 920 pixels
Height                                   : 804 pixels
Display aspect ratio                     : 2.40:1
Frame rate mode                          : Constant
Frame rate                               : 23.976 (24000/1001) FPS
Color space                              : YUV
Chroma subsampling                       : 4:2:0
Bit depth                                : 8 bits
Scan type                                : Progressive
Bits/(Pixel*Frame)                       : 0.328
Stream size                              : 12.0 GiB (81%)
Title                                    : Encoded by seleZen
Writing library                          : core 142 r2431+42 c69a006 tMod [[email protected] X86_64]
Encoding settings                        : cabac=1 / ref=5 / deblock=1:-2:-2 / analyse=0x3:0x133 / me=umh / subme=11 / psy=1 / fade_compensate=0.00 / psy_rd=1.00:0.00 / mixed_ref=1 / me_range=48 / chroma_me=1 / trellis=2 / 8x8dct=1 / cqm=0 / deadzone=21,11 / fast_pskip=0 / chroma_qp_offset=-2 / threads=24 / lookahead_threads=6 / sliced_threads=0 / nr=0 / decimate=0 / interlaced=0 / bluray_compat=0 / constrained_intra=0 / fgo=0 / bframes=10 / b_pyramid=2 / b_adapt=2 / b_bias=0 / direct=3 / weightb=1 / open_gop=0 / weightp=2 / keyint=240 / keyint_min=23 / scenecut=40 / intra_refresh=0 / rc_lookahead=50 / rc=2pass / mbtree=0 / bitrate=12143 / ratetol=1.0 / qcomp=0.60 / qpmin=0:0:0 / qpmax=51:51:51 / qpstep=4 / cplxblur=20.0 / qblur=0.5 / vbv_maxrate=50000 / vbv_bufsize=62500 / nal_hrd=none / filler=0 / ip_ratio=1.40 / pb_ratio=1.30 / aq=3:0.80 / aq-sensitivity=10.00 / aq-factor=1.00:1.00:1.00 / aq2=0 / aq3=0
Language                                 : English
Default                                  : Yes
Forced                                   : No

Audio #1
ID                                       : 2
Format                                   :
Format/Info                              : Digital Theater Systems
Codec ID                                 : A_DTS
Duration                                 : 2 h 21 min
Bit rate mode                            : Constant
Bit rate                                 : 1 509 kb/s
Channel(s)                               : 6 channels
Channel layout                           : C L R Ls Rs LFE
Sampling rate                            : 48.0 kHz
Frame rate                               : 93.750 FPS (512 SPF)
Bit depth                                : 24 bits
Compression mode                         : Lossy
Stream size                              : 1.50 GiB (10%)
Title                                    : , 5.1, 1536 Kbps
Language                                 : Ukrainian
Default                                  : Yes
Forced                                   : No

Audio #2
ID                                       : 3
Format                                   : AC-3
Format/Info                              : Audio Coding 3
Commercial name                          : Dolby Digital
Codec ID                                 : A_AC3
Duration                                 : 2 h 21 min
Bit rate mode                            : Constant
Bit rate                                 : 640 kb/s
Channel(s)                               : 6 channels
Channel layout                           : L R C LFE Ls Rs
Sampling rate                            : 48.0 kHz
Frame rate                               : 31.250 FPS (1536 SPF)
Bit depth                                : 16 bits
Compression mode                         : Lossy
Stream size                              : 649 MiB (4%)
Title                                    : , 5.1, 640 Kbps
Language                                 : Ukrainian
Service kind                             : Complete Main
Default                                  : No
Forced                                   : No

Audio #3
ID                                       : 4
Format                                   : AC-3
Format/Info                              : Audio Coding 3
Commercial name                          : Dolby Digital
Codec ID                                 : A_AC3
Duration                                 : 2 h 21 min
Bit rate mode                            : Constant
Bit rate                                 : 640 kb/s
Channel(s)                               : 6 channels
Channel layout                           : L R C LFE Ls Rs
Sampling rate                            : 48.0 kHz
Frame rate                               : 31.250 FPS (1536 SPF)
Bit depth                                : 16 bits
Compression mode                         : Lossy
Stream size                              : 649 MiB (4%)
Title                                    : , 5.1, 640 Kbps
Language                                 : English
Service kind                             : Complete Main
Default                                  : No
Forced                                   : No

Text #1
ID                                       : 5
Format                                   : UTF-8
Codec ID                                 : S_TEXT/UTF8
Codec ID/Info                            : UTF-8 Plain Text
Duration                                 : 2 h 11 min
Bit rate                                 : 39 b/s
Count of elements                        : 1460
Stream size                              : 37.9 KiB (0%)
Title                                    : Full
Language                                 : English
Default                                  : No
Forced                                   : No

Text #2
ID                                       : 6
Format                                   : UTF-8
Codec ID                                 : S_TEXT/UTF8
Codec ID/Info                            : UTF-8 Plain Text
Duration                                 : 2 h 11 min
Bit rate                                 : 48 b/s
Count of elements                        : 1895
Stream size                              : 47.1 KiB (0%)
Title                                    : SDH
Language                                 : English
Default                                  : No
Forced                                   : No

Menu
00:00:00.000                             : en:Глава 01
00:00:09.176                             : en:Глава 02
00:01:40.934                             : en:Глава 03
00:03:47.811                             : en:Глава 04
00:06:42.902                             : en:Глава 05
00:08:26.673                             : en:Глава 06
00:10:04.896                             : en:Глава 07
00:12:48.142                             : en:Глава 08
00:13:54.000                             : en:Глава 09
00:15:17.416                             : en:Глава 10
00:17:13.199                             : en:Глава 11
00:19:25.039                             : en:Глава 12
00:21:28.579                             : en:Глава 13
00:25:27.693                             : en:Глава 14
00:27:14.883                             : en:Глава 15
00:30:41.548                             : en:Глава 16
00:35:49.064                             : en:Глава 17
00:41:37.745                             : en:Глава 18
00:43:15.259                             : en:Глава 19
00:45:28.351                             : en:Глава 20
00:48:24.568                             : en:Глава 21
00:54:37.566                             : en:Глава 22
00:58:49.192                             : en:Глава 23
01:02:54.771                             : en:Глава 24
01:06:23.104                             : en:Глава 25
01:09:54.607                             : en:Глава 26
01:13:07.383                             : en:Глава 27
01:18:23.616                             : en:Глава 28
01:23:41.225                             : en:Глава 29
01:27:02.884                             : en:Глава 30
01:30:23.126                             : en:Глава 31
01:35:00.820                             : en:Глава 32
01:38:47.880                             : en:Глава 33
01:40:35.863                             : en:Глава 34
01:43:03.135                             : en:Глава 35
01:45:27.863                             : en:Глава 36
01:48:48.188                             : en:Глава 37
01:53:27.634                             : en:Глава 38
01:55:30.757                             : en:Глава 39
01:59:02.969                             : en:Глава 40
02:01:37.749                             : en:Глава 41
02:05:20.430                             : en:Глава 42
02:09:42.692                             : en:Глава 43
02:12:25.896                             : en:Глава 44

Скріншоти








Джерело: &
Особиста оцінка: 0 - не дивився
Подяка пану Hanway за синхронізацію звуку.




[/font]


 Трекер:    Зареєстрований   

Завантажити / скачати фільм українською



відео для новачків



 Зареєстрований:   2020-03-21 16:22
 Розмір:   14.8 GB 
 Оцінка фільму:   9.3/10 (Голосів: 53)
   
Electroz 
Відео Гуртом - підтримка та поширення
Відео Гуртом - підтримка та поширення


З нами з: 18.09.14
Востаннє: 22.09.20
Повідомлень: 4013

2020-03-21 18:03  
Варто було зробити форсовані субтитри.
В тюнсі локалізований відеоряд.

nobodyknows 
Частий відвідувач


З нами з: 06.06.19
Востаннє: 22.09.20
Повідомлень: 27

2020-03-21 21:51  
Electroz
На Украинском есть уже локализованый ?

Anonymous 







2020-03-21 22:11  
Загальні правила користування Торрент-Толокою
Цитата:
2.1 Спілкуватися іншою мовою, аніж літературною українською; використовувати для написання українських слів іншу абетку, аніж кирилицю
наступного разу

OL3X 
VIP


З нами з: 25.11.15
Востаннє: 20.09.20
Повідомлень: 458

2020-03-22 00:29  
Жахливий фільм. 3/10 за графіку, не рекомендую
Mant1kor 
Свій


З нами з: 27.10.10
Востаннє: 19.09.20
Повідомлень: 66

2020-03-22 13:15  
4/10 за сюжет.
Adetru 
Новенький


З нами з: 22.11.17
Востаннє: 21.09.20
Повідомлень: 9

2020-03-23 01:20  
Повний треш, а не Зоряні Війни(
Luzohid 
Свій


З нами з: 14.09.15
Востаннє: 25.08.20
Повідомлень: 92

2020-04-06 17:40  
Супер! Добре, що закінчилось файно. Велика дяка за реліз. :-)
P.S. А хто дивився з англ сабами? Там виявляється щодо дроїда R2 - в сабах писали Artoo - розумієте TOO, а не Two. то ж ніякий не R2, а Artoo - Арту :-)

AlbertTol 
Частий відвідувач


З нами з: 12.11.17
Востаннє: 21.09.20
Повідомлень: 38

2020-04-06 17:59  
Фанати припиніть вже. Я розумію що коли пубертат прийшовся на принцесу Лею то воно на все життя але ж цій фільм нічнім не гірші за будь який епізод саги. Класне кіно. Всім раджу якщо дивитесь це вже сорок років )
KeryaS 
VIP


З нами з: 01.09.14
Востаннє: 21.09.20
Повідомлень: 303

2020-04-06 18:19  
AlbertTol написано:
Фанати припиніть вже

Подивився 20 хв, вимкнув і видалив. Хоч я себе великим фанатом і не вважаю, але третя трилогія скочувалася в прірву з кожним фільмом. 7й ще можна було якось подивитися, 8й ледь осилив, 9й не зміг. Із нових тільки Бунтар 1 більш менш сподобався, Хан Соло теж через силу додивився. Ситуація, в цілому, як з новими Людьми в чорному - наче все зроблено в дусі минулих частин, але без сльози не глянеш.

Lyolic 
VIP


З нами з: 04.08.09
Востаннє: 22.09.20
Повідомлень: 541

2020-04-06 21:01  
Luzohid написано:
то ж ніякий не R2, а Artoo

Завжди знав, що R2-D2, виявляється і так і так правильно )
https://en.wikipedia.org/wiki/R2-D2

Nikko033 
VIP


З нами з: 31.12.12
Востаннє: 21.09.20
Повідомлень: 622

2020-05-24 02:15  
AlbertTol написано:
але ж цій фільм нічнім не гірші за будь який епізод саги. Класне кіно. Всім раджу якщо дивитесь це вже сорок років )

не знаю, ЯК треба дивитись це лайно, щоб воно здавалось "нічим не гіршим" старих частин =_=

Ваш часовий пояс: GMT + 2 Години

Нова тема   Відповісти