Самотня біла жінка / Single White Female (1992) 720p 2xUkr/Eng | Sub Eng

Нові коментарі

Нова тема   Відповісти
Автор Повідомлення
Anonymous 







2020-03-21 12:21  
Самотня біла жінка / Single White Female (1992) 720p 2xUkr/Eng | Sub Eng

Самотня біла жінка / Single White Female (1992) 720p 2xUkr/Eng | Sub Eng


Жанр: трилер, драма
Країна: США



Кінокомпанія: Columbia Pictures Corporation
Режисер: Барбет Шредер
Актори: Бріджет Фонда, Дженіфер Джейсон Лі, Стівен Вебер, Пітер Фрідман, Стівен Тоболовскі, Френсіс Бей, Мішель Фарр, Тара Карсіан, Крістіана Капетільо, Джессіка Ланді

Сюжет:
«Самотня біла жінка шукає сусідку ...». Так починалося оголошення, яке Еллі Джонс помістила в газету. Так починався найстрашніший кошмар у її житті. Соромлива Хеді відразу сподобалася гостинній господині. Самотні жінки ділилися одна з одною одягом, парфумами і найпотаємнішими таємницями. Хеді хотіла у всьому бути схожою на свою нову подругу. І їй це вдалося. Але щоб домогтися остаточної подібності, дивній сусідці доведеться забрати у Еллі життя.


Тривалість: 01:47:58
Якість: 720p
Відео:
кодек:
розмір кадру: 1280х692
бітрейт: 10.8 Mб/с

Аудіо # 1:
мова: українська
переклад: двоголосий закадровий
кодек: 2.0
бітрейт: 192 кб/с

Аудіо # 2:
мова: українська
переклад: двоголосий закадровий
кодек: 2.0
бітрейт: 192 кб/с

Аудіо # 3:
мова: англійська
переклад: оригінал
кодек: 2.0
бітрейт: 1509 кб/с

Субтитри:
мова: англійська
тип: програмні (м'які)
формат: *.srt
Info
General
Unique ID : 240607381596000171000405078967319837789 (0xB5034BCD942F7FBE8A22D37BC5F4BC5D)
Complete name : H:\Toloka\2020\Single White Female (1992) 720p.
Format :
Format version : Version 4
File size : 9.78 GiB
Duration : 1 h 47 min
Overall bit rate : 13.0 Mb/s
Encoded date : UTC 2020-03-21 09:08:30
Writing application : v6.1.0 ('Old Devil') built on Mar 4 2013 09:10:42
Writing library : libebml v1.3.0 + v1.4.0

Video
ID : 1
Format : AVC
Format/Info : Advanced Video Codec
Format profile : [email protected]
Format settings : CABAC / 9 Ref Frames
Format settings, CABAC : Yes
Format settings, RefFrames : 9 frames
Codec ID : V_MPEG4/ISO/AVC
Duration : 1 h 47 min
Bit rate : 10.8 Mb/s
Width : 1 280 pixels
Height : 692 pixels
Display aspect ratio : 1.85:1
Frame rate mode : Constant
Frame rate : 23.976 (24000/1001) FPS
Color space : YUV
Chroma subsampling : 4:2:0
Bit depth : 8 bits
Scan type : Progressive
Bits/(Pixel*Frame) : 0.509
Stream size : 8.15 GiB (83%)
Writing library : core 157 r2969 d4099dd
Encoding settings : cabac=1 / ref=9 / deblock=1:-3:-2 / analyse=0x3:0x133 / me=umh / subme=11 / psy=1 / psy_rd=1.00:0.05 / mixed_ref=1 / me_range=48 / chroma_me=1 / trellis=2 / 8x8dct=1 / cqm=0 / deadzone=21,11 / fast_pskip=0 / chroma_qp_offset=-3 / threads=12 / lookahead_threads=3 / sliced_threads=0 / nr=0 / decimate=1 / interlaced=0 / bluray_compat=0 / constrained_intra=0 / bframes=10 / b_pyramid=2 / b_adapt=2 / b_bias=0 / direct=3 / weightb=1 / open_gop=0 / weightp=2 / keyint=250 / keyint_min=23 / scenecut=40 / intra_refresh=0 / rc_lookahead=60 / rc=crf / mbtree=0 / crf=17.3 / qcomp=0.60 / qpmin=0 / qpmax=69 / qpstep=4 / vbv_maxrate=50000 / vbv_bufsize=62500 / crf_max=0.0 / nal_hrd=none / filler=0 / ip_ratio=1.40 / pb_ratio=1.30 / aq=3:0.90
Language : English
Default : Yes
Forced : No

Audio #1
ID : 2
Format : AC-3
Format/Info : Audio Coding 3
Commercial name : Dolby Digital
Codec ID : A_AC3
Duration : 1 h 47 min
Bit rate mode : Constant
Bit rate : 192 kb/s
Channel(s) : 2 channels
Channel layout : L R
Sampling rate : 48.0 kHz
Frame rate : 31.250 FPS (1536 SPF)
Bit depth : 16 bits
Compression mode : Lossy
Stream size : 148 MiB (1%)
Title : UKR (Фенікс)
Language : Ukrainian
Service kind : Complete Main
Default : Yes
Forced : Yes

Audio #2
ID : 3
Format : AC-3
Format/Info : Audio Coding 3
Commercial name : Dolby Digital
Codec ID : A_AC3
Duration : 1 h 47 min
Bit rate mode : Constant
Bit rate : 192 kb/s
Channel(s) : 2 channels
Channel layout : L R
Sampling rate : 48.0 kHz
Frame rate : 31.250 FPS (1536 SPF)
Bit depth : 16 bits
Compression mode : Lossy
Stream size : 148 MiB (1%)
Title : UKR (AMC)
Language : Ukrainian
Service kind : Complete Main
Default : No
Forced : No

Audio #3
ID : 4
Format :
Format/Info : Digital Theater Systems
Codec ID : A_DTS
Duration : 1 h 47 min
Bit rate mode : Constant
Bit rate : 1 509 kb/s
Channel(s) : 2 channels
Channel layout : L R
Sampling rate : 48.0 kHz
Frame rate : 93.750 FPS (512 SPF)
Bit depth : 24 bits
Compression mode : Lossy
Stream size : 1.14 GiB (12%)
Title : Original
Language : English
Default : No
Forced : No

Text #1
ID : 5
Format : UTF-8
Codec ID : S_TEXT/UTF8
Codec ID/Info : UTF-8 Plain Text
Title : Full
Language : English
Default : No
Forced : No

Text #2
ID : 6
Format : UTF-8
Codec ID : S_TEXT/UTF8
Codec ID/Info : UTF-8 Plain Text
Title : SDH
Language : English
Default : No
Forced : No

Menu
00:00:00.000 : en:Chapter 01
00:06:55.832 : en:Chapter 02
00:17:41.143 : en:Chapter 03
00:24:45.859 : en:Chapter 04
00:34:18.347 : en:Chapter 05
00:44:07.853 : en:Chapter 06
00:52:37.821 : en:Chapter 07
01:04:35.413 : en:Chapter 08
01:15:25.312 : en:Chapter 09
01:24:10.754 : en:Chapter 10
01:35:54.749 : en:Chapter 11
01:45:07.551 : en:Chapter 12
01:47:55.719 : en:Chapter 13
Скріншоти






За доріжки подяка п.: bogdan8249, slavik_v_z, Arsenfpu
Особиста подяка пану denixx за надану матеріальну допомогу на підтримку цього і майбутніх релізів
Джерело:


Срібний реліз (на рейтинг впливає 50% завантаженого)
 Трекер:    Зареєстрований   

Завантажити / скачати фільм українською



відео для новачків



 Зареєстрований:   2020-03-21 12:21
 Розмір:   9.78 GB 
 Оцінка фільму:   10/10 (Голосів: 3)
   
Інші релізи
   Самотня біла жінка / Single White Female (1992) 2xUkr/Eng Arsenfpu  2 / 0   2.14 GB   2016-10-20 21:04 
   Самотня біла жінка / Single White Female (1992) bogdan8249  3 / 0   1.37 GB   2011-09-11 17:55 
Ваш часовий пояс: GMT + 2 Години

Нова тема   Відповісти