Американські графіті / American Graffiti (1973) Ukr/Eng | Sub Ukr

Нові коментарі

Нова тема   Відповісти
Автор Повідомлення
Anaive 
VIP


З нами з: 07.06.11
Востаннє: 12.07.20
Повідомлень: 251

2020-03-21 12:03  
Американські графіті / American Graffiti (1973) Ukr/Eng | Sub Ukr




Жанр: комедія, мелодрама
Країна: США



Кінокомпанія / телеканал: Universal
Режисер: Джордж Лукас
Актори: Річард Дрейфусс, Рон Говард, Пол Ле Мат, Чарльз Сміт, Сінді Вільямс, Кенді Кларк, МакКензі Філліпс, Вольфман Джек, Бо Хопкінс, Гаррісон Форд

Сюжет:

Одна ніч 1962 року ... Каліфорнійські підлітки Стів Боландер і Курт Гендерсон тільки-но закінчили школу і зібралися виїхати на східне узбережжя для вступу в коледж. Стів закоханий в сестру Курта Лорі, і їм важко розлучитися один з одним. Курт ще не знайшов свою любов, але він побачив на вулиці шикарну блондинку, і тепер намагається її відшукати. Їх приятель, непереможний автогонщик Джон Мілнер, залишається в цю ніч наодинці з неповнолітньою дівчиною Керол. Багато веселого і сумного трапилося з хлопцями ....


Тривалість: 01:52:29

Якість:
Відео:
кодек:
розмір кадру: 720x304
бітрейт: 2222 кб/с
контейнер: avi

Аудіо # 1:
мова: українська
переклад: багатоголосий закадровий
кодек: 2.0
бітрейт: 448 кб/с

Аудіо # 2:
мова: англійська
переклад: оригінал
кодек: 2.0
бітрейт: 448 кб/с

Субтитри # 1:
мова: українська | ХевіЮА
тип: програмні (м'які)
формат: srt

Субтитри # 2:
мова: українська
тип: програмні (м'які)
формат: srt

Джерело перекладу: ХевіЮА
Джерело озвучення: Енейв, В одне рило, Artymko
Info
General
Complete name : D:\Video\American Graffiti (1973)\American Graffiti (1973) ukr eng VOdneRilo .avi
Format : AVI
Format/Info : Audio Video Interleave
Format profile : OpenDML
File size : 2.47 GiB
Duration : 1 h 52 min
Overall bit rate : 3 135 kb/s
Writing application : VirtualDubModUkr 1.5.10.2 (build 2542/release)
Writing library : VirtualDubMod build 2542/release

Video
ID : 0
Format : MPEG-4 Visual
Format profile : Advanced [email protected]
Format settings : BVOP2 / Custom Matrix
Format settings, BVOP : 2
Format settings, QPel : No
Format settings, GMC : No warppoints
Format settings, Matrix : Custom
Codec ID :
Codec ID/Hint :
Duration : 1 h 52 min
Bit rate : 2 222 kb/s
Width : 720 pixels
Height : 304 pixels
Display aspect ratio : 2.35:1
Frame rate : 23.976 (24000/1001) FPS
Color space : YUV
Chroma subsampling : 4:2:0
Bit depth : 8 bits
Scan type : Progressive
Compression mode : Lossy
Bits/(Pixel*Frame) : 0.423
Stream size : 1.75 GiB (71%)
Writing library : 73

Audio #1
ID : 1
Format : AC-3
Format/Info : Audio Coding 3
Commercial name : Dolby Digital
Codec ID : 2000
Duration : 1 h 52 min
Bit rate mode : Constant
Bit rate : 448 kb/s
Channel(s) : 2 channels
Channel layout : L R
Sampling rate : 48.0 kHz
Frame rate : 31.250 FPS (1536 SPF)
Compression mode : Lossy
Stream size : 361 MiB (14%)
Alignment : Split across interleaves
Interleave, duration : 42 ms (1.00 video frame)
Interleave, preload duration : 500 ms
Service kind : Complete Main

Audio #2
ID : 2
Format : AC-3
Format/Info : Audio Coding 3
Commercial name : Dolby Digital
Codec ID : 2000
Duration : 1 h 52 min
Bit rate mode : Constant
Bit rate : 448 kb/s
Channel(s) : 2 channels
Channel layout : L R
Sampling rate : 48.0 kHz
Frame rate : 31.250 FPS (1536 SPF)
Compression mode : Lossy
Stream size : 361 MiB (14%)
Alignment : Split across interleaves
Interleave, duration : 42 ms (1.00 video frame)
Interleave, preload duration : 500 ms
Service kind : Complete Main
Скріншоти




Реліз на замовлення NemoInFire


Авторський реліз (завантажувати можна без реєстрації)
 Трекер:    Зареєстрований   

Завантажити / скачати фільм українською



відео для новачків



 Зареєстрований:   2020-04-21 14:57
 Розмір:   2.47 GB 
 Оцінка фільму:   7.8/10 (Голосів: 9)
   
Інші релізи
bot 
робот


З нами з: 30.09.07
Востаннє: 26.05.05
Повідомлень: 25052

2020-03-21 12:04  
Тему перенесено з Фільми до форуму Анонси релізів


Anaive

+380954897458 
VIP


З нами з: 02.06.17
Востаннє: 12.07.20
Повідомлень: 888

2020-03-21 14:12  
Рейтинг у Вас невірно показаний. І, я думаю, варто також відмітити Харрісона (Гаррісона) Форда, бо з цього фільму почалася його доленосна співпраця з Джорджем Лукасом. Happy До речі, жодного разу стрічки не бачив. Sad (2) Sad (2)
Electroz 
Відео Гуртом - підтримка та поширення
Відео Гуртом - підтримка та поширення


З нами з: 18.09.14
Востаннє: 12.07.20
Повідомлень: 3951

2020-03-22 17:31  
Anaive написано:

мова: англійська
переклад: оригінал
кодек: 5.1
бітрейт: 192 кб/с

я б добряче дав по рукам за таке "знущання" доріжки...

Anaive 
VIP


З нами з: 07.06.11
Востаннє: 12.07.20
Повідомлень: 251

2020-03-23 13:52  
Electroz
Оригінал такий Happy
В нормальний звук, якщо мова пр якість , але так 2 канали

leicheman 
Відео Гуртом - фільмокрай
Відео Гуртом - фільмокрай


З нами з: 03.07.14
Востаннє: 12.07.20
Повідомлень: 5133

2020-04-14 23:07  
є офіційні субтитри з нетфлікс, якщо потрібні пишіть.
Anaive 
VIP


З нами з: 07.06.11
Востаннє: 12.07.20
Повідомлень: 251

2020-04-18 19:11  
майже завершили Happy
leicheman
англійські чи українські?
Ми вже переклали та озвучили. Залишилось тільки записати фікси і все.

SurFutur 
VIP


З нами з: 12.03.15
Востаннє: 10.07.20
Повідомлень: 465

2020-04-18 19:13  
Anaive написано:
англійські чи українські?

https://toloka.to/t109775

leicheman 
Відео Гуртом - фільмокрай
Відео Гуртом - фільмокрай


З нами з: 03.07.14
Востаннє: 12.07.20
Повідомлень: 5133

2020-04-18 19:13  
Anaive написано:
англійські чи українські?

українські
ось https://toloka.to/t109775 є у роздачі окремим файлом, можете узяти і будуть два варіанти.

Anaive 
VIP


З нами з: 07.06.11
Востаннє: 12.07.20
Повідомлень: 251

2020-04-18 19:15  
leicheman
де ж Ви були раніше? Sad (1)
Додам...

Anaive 
VIP


З нами з: 07.06.11
Востаннє: 12.07.20
Повідомлень: 251

2020-04-21 12:35  
Сьогодні

bot 
робот


З нами з: 30.09.07
Востаннє: 26.05.05
Повідомлень: 25052

2020-04-21 14:57  
Тему перенесено з Анонси релізів до форуму Фільми


Anaive

dxs08 
Забанено
Забанено


З нами з: 15.02.18
Востаннє: 27.04.20
Повідомлень: 14

2020-04-24 00:43  
Фільмець досить лайновитий такий. )
Anaive 
VIP


З нами з: 07.06.11
Востаннє: 12.07.20
Повідомлень: 251

2020-05-01 12:39  
dxs08
до побачення Happy

+380954897458 
VIP


З нами з: 02.06.17
Востаннє: 12.07.20
Повідомлень: 888

2020-05-01 19:42  
Й досі рейтинг не виправили. Там 7.4 ...
Anaive 
VIP


З нами з: 07.06.11
Востаннє: 12.07.20
Повідомлень: 251

2020-05-05 22:31  
+380954897458
Виправив

MakRA 
VIP


З нами з: 11.11.18
Востаннє: 12.07.20
Повідомлень: 1086

2020-05-06 15:17  
+Remux 1080p 
Anaive 
VIP


З нами з: 07.06.11
Востаннє: 12.07.20
Повідомлень: 251

2020-05-07 10:00  
MakRA
додав в шапку

Ваш часовий пояс: GMT + 2 Години

Нова тема   Відповісти