Авторитет / Juice (1992) Remux 1080p Ukr/Eng | Sub Eng

Нові коментарі

Нова тема   Відповісти
Останній раз роздавалося barmaley77 (2020-08-06)
Автор Повідомлення
Anonymous 







2020-03-19 23:34  
Авторитет / Juice (1992) Remux 1080p Ukr/Eng | Sub Eng

Авторитет / Juice (1992) Remux 1080p Ukr/Eng | Sub Eng


Жанр: Кримінал, драма, трилер
Країна: США



Режисер: Ернест Р. Дікерсон
Актори: Тупак Шакур, Омар Еппс, Семюел Л. Джексон, Квін Латіфа, Жермен Г. Гопкінс

Сюжет:
Кримільна драма, що згодом отримала статус культової. Дебютний фільм Ернеста Діккерсона (також відомий, як сценарист телесеріалу "І мертві підуть"), який розповідає нам про тяжке життя темношкірих людей із Гарлема. Четверо підлітків ведуть злочинний спосіб життя та раптом усе змінюється після невдалого пограбування магазину.


Тривалість: 01:34:41
Якість: Blu-Ray Remux 1080p
Відео:
кодек:
розмір кадру: 1920 х 1080
бітрейт: 32.7 мб/с

Аудіо # 1:
мова: українська
переклад: багатоголосий закадровий
кодек: 2.0
бітрейт: 384 кб/с

Аудіо # 2:
мова: англійська
переклад: оригінал
кодек: -HD MA 5.1
бітрейт: 3806 кб/с

Аудіо # 3:
мова: англійська
переклад: коментарі
кодек: 2.0
бітрейт: 224 кб/с

Субтитри # 1-2 (Full, SDH):
мова: англійська
тип: програмні (м'які)
формат: *.srt
Info
General
Complete name : Juice (1992) Blu-Ray Remux 1080p [ukr_eng] [Video_Hurtom].
Format :
Format version : Version 4
File size : 24.5 GiB
Duration : 1 h 34 min
Overall bit rate mode : Variable
Overall bit rate : 37.1 Mb/s
Movie name : Авторитет / Juice (1992)
Encoded date : UTC 2020-03-19 18:48:58
Writing application : v30.1.0 ('Forever And More') 64-bit
Writing library : libebml v1.3.6 + v1.4.9
Cover : Yes
Attachments : cover.jpg

Video
ID : 1
Format : AVC
Format/Info : Advanced Video Codec
Format profile : [email protected]
Format settings : CABAC / 4 Ref Frames
Format settings, CABAC : Yes
Format settings, RefFrames : 4 frames
Codec ID : V_MPEG4/ISO/AVC
Duration : 1 h 34 min
Bit rate mode : Variable
Bit rate : 32.7 Mb/s
Maximum bit rate : 35.0 Mb/s
Width : 1 920 pixels
Height : 1 080 pixels
Display aspect ratio : 16:9
Frame rate mode : Constant
Frame rate : 23.976 (24000/1001) FPS
Color space : YUV
Chroma subsampling : 4:2:0
Bit depth : 8 bits
Scan type : Progressive
Bits/(Pixel*Frame) : 0.657
Stream size : 21.6 GiB (88%)
Title : Juice [1992]
Language : English
Default : No
Forced : No

Audio #1
ID : 2
Format : AC-3
Format/Info : Audio Coding 3
Commercial name : Dolby Digital
Codec ID : A_AC3
Duration : 1 h 34 min
Bit rate mode : Constant
Bit rate : 384 kb/s
Channel(s) : 2 channels
Channel layout : L R
Sampling rate : 44.1 kHz
Frame rate : 28.711 FPS (1536 SPF)
Bit depth : 16 bits
Compression mode : Lossy
Stream size : 260 MiB (1%)
Title : AC-3, 44.1 kHz, 2 channels, 384 Kbps
Language : Ukrainian
Service kind : Complete Main
Default : Yes
Forced : No

Audio #2
ID : 3
Format : XLL
Format/Info : Digital Theater Systems
Commercial name : -HD Master Audio
Codec ID : A_DTS
Duration : 1 h 34 min
Bit rate mode : Variable
Bit rate : 3 806 kb/s
Channel(s) : 6 channels
Channel layout : C L R Ls Rs LFE
Sampling rate : 48.0 kHz
Frame rate : 93.750 FPS (512 SPF)
Bit depth : 24 bits
Compression mode : Lossless
Stream size : 2.52 GiB (10%)
Title : -HD MA, 48.0 kHz, 6 channels, 3806 Kbps
Language : English
Default : No
Forced : No

Audio #3
ID : 4
Format : AC-3
Format/Info : Audio Coding 3
Commercial name : Dolby Digital
Codec ID : A_AC3
Duration : 1 h 34 min
Bit rate mode : Constant
Bit rate : 224 kb/s
Channel(s) : 2 channels
Channel layout : L R
Sampling rate : 48.0 kHz
Frame rate : 31.250 FPS (1536 SPF)
Bit depth : 16 bits
Compression mode : Lossy
Stream size : 152 MiB (1%)
Title : AC-3, 48.0 kHz, 2 channels, 224 Kbps | Comments
Language : English
Service kind : Complete Main
Default : No
Forced : No

Text #1
ID : 5
Format : UTF-8
Codec ID : S_TEXT/UTF8
Codec ID/Info : UTF-8 Plain Text
Duration : 1 h 28 min
Bit rate : 62 b/s
Count of elements : 1144
Stream size : 40.8 KiB (0%)
Title : full
Language : English
Default : No
Forced : No

Text #2
ID : 6
Format : UTF-8
Codec ID : S_TEXT/UTF8
Codec ID/Info : UTF-8 Plain Text
Duration : 1 h 31 min
Bit rate : 65 b/s
Count of elements : 1266
Stream size : 43.9 KiB (0%)
Title : SDH
Language : English
Default : No
Forced : No

Menu
00:00:00.000 : en:Chapter 01
00:02:40.368 : en:Chapter 02
00:20:43.325 : en:Chapter 03
00:29:43.865 : en:Chapter 04
00:33:41.269 : en:Chapter 05
00:41:07.798 : en:Chapter 06
00:46:46.053 : en:Chapter 07
00:49:22.459 : en:Chapter 08
00:57:53.094 : en:Chapter 09
01:13:07.633 : en:Chapter 10
01:21:50.697 : en:Chapter 11
Скріншоти


Джерело: &
Особиста оцінка: 0 - не дивився


Золотий реліз (завантажене не впливає на рейтинг)
 Трекер:    Зареєстрований   

Завантажити / скачати фільм українською



відео для новачків



 Зареєстрований:   2020-03-19 23:34
 Розмір:   24.53 GB 
 Оцінка фільму:   9.8/10 (Голосів: 4)
   
Інші релізи
   Авторитет / Juice (1992) antik_2008  0 / 0   1.47 GB   2020-03-20 11:23 
   Авторитет / Juice (1992) mini 1080p H.265 Ukr/Eng | Sub Eng ukr_anonymous  4 / 0   3.72 GB   2018-06-17 20:26 
Ваш часовий пояс: GMT + 2 Години

Нова тема   Відповісти