Andromeda Dreams - Point Of No Return (2020) [] | Synthwave / Retrowave

Нові коментарі

Нова тема   Відповісти
Автор Повідомлення
kolpavel 
VIP


З нами з: 04.05.14
Востаннє: 17.04.21
Повідомлень: 1398

2020-03-19 19:23  
Andromeda Dreams - Point Of No Return (2020) [] | Synthwave / Retrowave

Andromeda Dreams - Point Of No Return (2020) [] | Synthwave / Retrowave



Стиль: Synthwave Retrowave Spacesynth
Країна, місто: Україна, Київ
Видавець: Retrowave Touch Records

Виконавці:
Олег Марченко.

Пісні:
    01. Stratosphere - 01:14
    02. Metropolis - 03:43
    03. Intergalactic Flight - 04:52
    04. The Brightest Star - 04:18
    05. Peaceful Planet - 04:31
    06. Gravitational Singularity - 04:20
    07. One Step To Eternity - 03:52
    08. Time Warp - 04:48
    09. Radiance - 04:04
    10. Rise To The Stars - 04:07

Тривалість: 00:39:51
Мова: iнструментальнi композицiї
Аудіо-кодек:
Бітрейт: 1386 - 1680 кб/с
Джерело: трекер
Додаткова інформація:
Лог якостi
foobar2000 1.3.2 / Замер динамического диапазона (DR) 1.1.1
Дата отчёта: 2020-03-14 20:22:02

--------------------------------------------------------------------------------
Анализ: Andromeda Dreams / Point Of No Return
--------------------------------------------------------------------------------

DR Пики RMS Продолжительность трека
--------------------------------------------------------------------------------
DR7 -0.32 дБ -8.32 дБ 1:14 01-Stratosphere
DR5 -0.29 дБ -7.33 дБ 3:43 02-Metropolis
DR4 -0.32 дБ -5.94 дБ 4:53 03-Intergalactic Flight
DR5 -0.32 дБ -7.46 дБ 4:18 04-The Brightest Star
DR5 -0.29 дБ -6.29 дБ 4:31 05-Peaceful Planet
DR5 -0.36 дБ -7.00 дБ 4:21 06-Gravitational Singularity
DR5 -0.30 дБ -6.53 дБ 3:52 07-One Step To Eternity
DR5 -0.29 дБ -6.40 дБ 4:48 08-Time Warp
DR4 -0.32 дБ -5.69 дБ 4:04 09-Radiance
DR4 -0.29 дБ -5.68 дБ 4:08 10-Rise To The Stars
--------------------------------------------------------------------------------

Количество треков: 10
Реальные значения DR: DR5

Частота: 44100 Гц
Каналов: 2
Разрядность: 24
Битрейт: 1516 кбит/с
Кодек:
================================================================================


Якщо Ви справді бажаєте підтримати українське - після прослуховування, якщо музика вам сподобалась, придбайте ліцензійний диск. Підтримаймо вітчизняних виконавців!


Срібний реліз (на рейтинг впливає 50% завантаженого)
 Трекер:    Зареєстрований   

Завантажити / скачати українську музику



відео для новачків



 Зареєстрований:   2020-03-19 19:23
 Розмір:   464 MB 
 Оцінка музики:   10/10 (Голосів: 5)
   
kolpavel 
VIP


З нами з: 04.05.14
Востаннє: 17.04.21
Повідомлень: 1398

2020-03-19 19:28  
https://toloka.to/t107813#1164209 Andromeda Dreams | Дискографiя (3CD) (2015-2020)[MP3].
Ваш часовий пояс: GMT + 2 Години

Нова тема   Відповісти