Полдарк / Poldark (Сезон 2) (2016) 1080p Ukr/Eng | Sub Eng

Нові коментарі

Нова тема   Відповісти
Автор Повідомлення
sergiyko.5 
VIP


З нами з: 25.02.16
Востаннє: 08.07.20
Повідомлень: 3241

2020-03-19 19:07  


Полдарк / Poldark (Сезон 2) (2016) 1080p Ukr/Eng | Sub Eng

Полдарк / Poldark (Сезон 2) (2016) 1080p Ukr/Eng | Sub Eng

Жанр: драма, мелодрама, історичний
Країна: Велика Британія
Кінокомпанія: Mammoth Screen
Режисер: Джосс Егнью, Селлі Апрахаміан, Едвард Базалгетт
Актори: Ейдан Тернер, Елінор Томлінсон, Джек Фартінг, Беті Едні, Трістан Старрок, Люк Норріс, Хейда Рід, Габріелла Уайлд, Піп Торренс, Керолайн Блекістон

Сюжет:
Сюжет серіалу заснований на історії Росса Полдарка, який повертається після війни додому. Тут він дізнається, що батько помер, а на фермі заправляють п'яниці слуги. Крім цього, наречена головного героя побралася з його кузеном, так як думала, що Полдарк помер.




Тривалість: 1 серія: 59:00 (цілком серій: 10 з 10)
Якість:

Відео: кодек: розмір кадру: 1920x1080 бітрейт: 15000 кб/с
Аудіо # 1: мова: українська переклад: двоголосий закадровий кодек: 2.0 бітрейт: 192 кб/с
Озвучення: (Михайло Войчук і Ольга Гриськова)
Аудіо # 2: мова: англійська переклад: оригінал кодек: 2.0 бітрейт: 384 кб/с
Субтитри: мова: англійська тип: програмні (м'які) формат: *.srt
Перелік серій
епізод 01
епізод 02
епізод 03
епізод 04
епізод 05
епізод 06
епізод 07
епізод 08
епізод 09
епізод 10
Про файл:
General
Unique ID : 295495091073897660201856806516243181231 (0xDE4E48D086D75DF004EBF63714EE2EAF)
Complete name : D:\Documents\Torrents\Poldark S02 1080p \Poldark.S02E01.2016.1080p..
Format :
Format version : Version 4
File size : 6.26 GiB
Duration : 57 min 17 s
Overall bit rate : 15.6 Mb/s
Movie name : Poldark S02 1080p by sergiyko
Encoded date : UTC 2020-05-06 18:04:54
Writing application : v46.0.0 ('No Deeper Escape') 64-bit
Writing library : libebml v1.3.10 + v1.5.2

Video
ID : 1
Format : AVC
Format/Info : Advanced Video Codec
Format profile : [email protected]
Format settings : CABAC / 4 Ref Frames
Format settings, CABAC : Yes
Format settings, Reference : 4 frames
Codec ID : V_MPEG4/ISO/AVC
Duration : 57 min 17 s
Bit rate : 15.1 Mb/s
Width : 1 920 pixels
Height : 1 080 pixels
Display aspect ratio : 16:9
Frame rate mode : Constant
Frame rate : 25.000 FPS
Color space : YUV
Chroma subsampling : 4:2:0
Bit depth : 8 bits
Scan type : Progressive
Bits/(Pixel*Frame) : 0.290
Stream size : 6.02 GiB (96%)
Title : S02E01
Writing library : core 157 r2970 5493be8
Encoding settings : cabac=1 / ref=4 / deblock=1:-1:-1 / analyse=0x3:0x133 / me=umh / subme=10 / psy=1 / psy_rd=1.00:0.15 / mixed_ref=1 / me_range=24 / chroma_me=1 / trellis=2 / 8x8dct=1 / cqm=0 / deadzone=21,11 / fast_pskip=1 / chroma_qp_offset=-3 / threads=24 / lookahead_threads=4 / sliced_threads=0 / nr=0 / decimate=1 / interlaced=0 / bluray_compat=0 / constrained_intra=0 / bframes=8 / b_pyramid=2 / b_adapt=2 / b_bias=0 / direct=3 / weightb=1 / open_gop=0 / weightp=2 / keyint=250 / keyint_min=25 / scenecut=40 / intra_refresh=0 / rc_lookahead=60 / rc=crf / mbtree=1 / crf=19.0 / qcomp=0.60 / qpmin=0 / qpmax=69 / qpstep=4 / ip_ratio=1.40 / aq=1:1.00
Language : English
Default : Yes
Forced : No

Audio #1
ID : 2
Format : AC-3
Format/Info : Audio Coding 3
Commercial name : Dolby Digital
Codec ID : A_AC3
Duration : 57 min 17 s
Bit rate mode : Constant
Bit rate : 192 kb/s
Channel(s) : 2 channels
Channel layout : L R
Sampling rate : 48.0 kHz
Frame rate : 31.250 FPS (1536 SPF)
Compression mode : Lossy
Stream size : 78.7 MiB (1%)
Language : Ukrainian
Service kind : Complete Main
Default : Yes
Forced : Yes

Audio #2
ID : 3
Format : AC-3
Format/Info : Audio Coding 3
Commercial name : Dolby Digital
Codec ID : A_AC3
Duration : 57 min 17 s
Bit rate mode : Constant
Bit rate : 384 kb/s
Channel(s) : 2 channels
Channel layout : L R
Sampling rate : 48.0 kHz
Frame rate : 31.250 FPS (1536 SPF)
Compression mode : Lossy
Stream size : 157 MiB (2%)
Language : English
Service kind : Complete Main
Default : No
Forced : No

Text
ID : 4
Format : UTF-8
Codec ID : S_TEXT/UTF8
Codec ID/Info : UTF-8 Plain Text
Duration : 56 min 18 s
Bit rate : 59 b/s
Count of elements : 641
Stream size : 24.3 KiB (0%)
Language : English
Default : No
Forced : No

Menu
00:00:00.000 : uk:Розділ 01
00:09:02.480 : uk:Розділ 02
00:18:02.080 : uk:Розділ 03
00:30:41.080 : uk:Розділ 04
00:39:59.320 : uk:Розділ 05
00:47:43.600 : uk:Розділ 06
Скріншоти:


Запис звуку/зведення/ріп відео: sergiyko


Срібний реліз (на рейтинг впливає 50% завантаженого)
 Трекер:    Зареєстрований   

Завантажити / скачати серіал українською



відео для новачків



 Зареєстрований:   2020-05-07 00:48
 Розмір:   66.79 GB 
 Оцінка серіалу:   7.8/10 (Голосів: 4)
   
11FrYkT 
Модератор відео


З нами з: 20.02.11
Востаннє: 08.07.20
Повідомлень: 6942

2020-03-19 21:10  
sergiyko.5 написано:

Menu
00:00:00.000 : :Глава 01
00:09:02.480 : :Глава 02
00:18:02.080 : :Глава 03
00:30:41.080 : :Глава 04
00:39:59.320 : :Глава 05
00:47:43.600 : :Глава 06

міняйте/редагуйте такі розділи

krovosisi 
Новенький


З нами з: 09.12.12
Востаннє: 06.07.20
Повідомлень: 12

2020-05-04 01:49  
Таке враження, що 9 серія попала на бед блоки харда в релізера. Мав ще хтось з нею проблему?
sergiyko.5 
VIP


З нами з: 25.02.16
Востаннє: 08.07.20
Повідомлень: 3241

2020-05-07 00:49  
Торент оновлено. Виправлено помилки.
Cartwright 
VIP


З нами з: 23.03.13
Востаннє: 09.07.20
Повідомлень: 295

2020-05-10 11:49  
Яка ж свята ця Демельза. Благороднішої жінки немає на телебаченні. Прямо втілення мрій та сподівань всіх домогосподарок світу, такий собі монстр Франкенш... Полдарка із добра, благородності та святості. Серіал варто було назвати Демельза, бо він про неї, а не якогось там Полдарка, та і Полдарків там майже немає.

І взагалі, вся любовна сюжетна лінія серіалу висмоктана з пальця. Й так зрозуміло, що Полдарк не покане Демельзу, бо як він може покинути таку бідну, роботящу та святу жінку, проміняти її на якусь леді. Чим далі, тим більше дратує ця любовна лінія, бо й так зрозуміло, що Полдарк не кине Демельзу за жодних обставин. Хоча все ж сценаристи начудили, бо я особисто щось не вірю в любов Полдарка до неї, більше схоже на жалість з його сторони та обов'язок перед дитиною.

P.S. Навіщо я взагалі дивлюсь цю дурню, навіть не знаю. Цікаво, чи вистачить мене додивитися цей серіал.

Ваш часовий пояс: GMT + 2 Години

Нова тема   Відповісти