Судити по совісті / Just Mercy (2019) 1080p Ukr/Eng | Sub Ukr/Eng

Нові коментарі

Нова тема   Відповісти
Автор Повідомлення
Anonymous 







2020-03-19 03:27  
Судити по совісті / Just Mercy (2019) 1080p Ukr/Eng | Sub Ukr/Eng

Судити по совісті / Just Mercy (2019) 1080p Ukr/Eng | Sub Ukr/Eng


Жанр: драма
Країна: США



Кінокомпанія: Warner Bros. Pictures
Режисер: Дестін Креттон
Актори: Брі Ларсон, Джеймі Фокс, Майкл Б. Джордан, Тім Блейк Нельсон, Рейф Сполл, О`Ші Джексон мл., Рода Гріффіс, Клер Бронсон, Роб Морган, Даррел Брітт-Гібсон, Маркус А. Гріффін мл., Ліндсей Ейліфф, С .Дж. Лебланк

Сюжет:
У Сполучених Штатах у кожного є право на юридичний захист, тільки дуже часто так буває, що Ваш адвокат абсолютно не зацікавлений у Вашому порятунку. Але Браян Стівенсон абсолютно не такий. Він обдарований темношкірий юрист, який сам собі пробив дорогу в еліту американської юриспруденції. І весь свій талант хлопець готовий направити на боротьбу за рівноправність. Браян захищатиме тих, у кого немає грошей на хорошого адвоката, щоб домагатися справедливості. Адвокат буде братися навіть за найбільш безнадійні справи – так доля його звела із засудженим до смертної кари Волтером МакМілліаном. Судити треба перш за все серцем, адже в будь-який момент на місці тюремних ув'язнених може опинитися будь-хто з нас.


Тривалість: 02:17:03
Якість: 1080p

Відео:
кодек:
розмір кадру: 1920 x 1036
бітрейт: 13700 кб/с

Аудіо # 1:
мова: українська
переклад: професійний дубльований | iTunes
кодек: 5.1
бітрейт: 384 кб/с

Аудіо # 3:
мова: англійська
переклад: оригінал
кодек: 5.1
бітрейт: 640 кб/с

Аудіо # 4:
мова: англійська
переклад: оригінал
кодек: 5.1
бітрейт: 1536 кб/с

Субтитри # 1 - 2: (Forced, Full)
мова: українська
тип: програмні (м'які)
формат: *.srt

Субтитри # 3 - 4: (Full, SDH)
мова: англійська
тип: програмні (м'які)
формат: *.srt
Info
General
Complete name : Just Mercy (2019) 1080p [ukr, eng] [Video_Hurtom].
Format :
Format version : Version 4
File size : 15.6 GiB
Duration : 2 h 17 min
Overall bit rate : 16.3 Mb/s
Movie name : Судити по совісті / Just Mercy
Encoded date : UTC 2020-05-15 21:33:35
Writing application : v30.1.0 ('Forever And More') 64-bit
Writing library : libebml v1.3.6 + v1.4.9
Cover : Yes
Attachments : cover.jpg

Video
ID : 1
Format : AVC
Format/Info : Advanced Video Codec
Format profile : [email protected]
Format settings : CABAC / 4 Ref Frames
Format settings, CABAC : Yes
Format settings, RefFrames : 4 frames
Codec ID : V_MPEG4/ISO/AVC
Duration : 2 h 17 min
Bit rate : 13.7 Mb/s
Width : 1 920 pixels
Height : 1 036 pixels
Display aspect ratio : 1.85:1
Frame rate mode : Constant
Frame rate : 23.976 (24000/1001) FPS
Color space : YUV
Chroma subsampling : 4:2:0
Bit depth : 8 bits
Scan type : Progressive
Bits/(Pixel*Frame) : 0.287
Stream size : 13.1 GiB (84%)
Title : CHD
Writing library : core 157 r2867+150 7e91e0e t_mod_Custom_2 [[email protected] X86_64]
Encoding settings : cabac=1 / ref=4 / deblock=1:-3:-3 / analyse=0x3:0x133 / me=umh / subme=11 / psy=1 / fade_compensate=0.00 / psy_rd=0.90:0.10 / mixed_ref=1 / me_range=64 / chroma_me=1 / trellis=2 / 8x8dct=1 / cqm=0 / deadzone=21,11 / fast_pskip=0 / chroma_qp_offset=-4 / threads=32 / lookahead_threads=5 / sliced_threads=0 / nr=0 / decimate=1 / interlaced=0 / bluray_compat=0 / constrained_intra=0 / fgo=0 / bframes=8 / b_pyramid=2 / b_adapt=2 / b_bias=0 / direct=3 / weightb=1 / open_gop=0 / weightp=2 / keyint=250 / keyint_min=23 / scenecut=40 / intra_refresh=0 / rc_lookahead=60 / rc=crf / mbtree=0 / crf=18.0000 / qcomp=0.70 / qpmin=0:0:0 / qpmax=69:69:69 / qpstep=4 / vbv_maxrate=35000 / vbv_bufsize=35000 / crf_max=0.0 / nal_hrd=none / filler=0 / ip_ratio=1.40 / pb_ratio=1.30 / aq=3:1.00 / aq-sensitivity=10.00 / aq-factor=1.00:1.00:1.00 / aq2=0 / aq3=0
Language : English
Default : Yes
Forced : No

Audio #1
ID : 2
Format : AC-3
Format/Info : Audio Coding 3
Commercial name : Dolby Digital
Codec ID : A_AC3
Duration : 2 h 17 min
Bit rate mode : Constant
Bit rate : 384 kb/s
Channel(s) : 6 channels
Channel layout : L R C LFE Ls Rs
Sampling rate : 48.0 kHz
Frame rate : 31.250 FPS (1536 SPF)
Bit depth : 16 bits
Compression mode : Lossy
Stream size : 376 MiB (2%)
Title : 5.1 | 384
Language : Ukrainian
Service kind : Complete Main
Default : Yes
Forced : No

Audio #2
ID : 3
Format : AC-3
Format/Info : Audio Coding 3
Commercial name : Dolby Digital
Codec ID : A_AC3
Duration : 2 h 17 min
Bit rate mode : Constant
Bit rate : 640 kb/s
Channel(s) : 6 channels
Channel layout : L R C LFE Ls Rs
Sampling rate : 48.0 kHz
Frame rate : 31.250 FPS (1536 SPF)
Bit depth : 16 bits
Compression mode : Lossy
Stream size : 627 MiB (4%)
Title : 5.1 | 640
Language : English
Service kind : Complete Main
Default : No
Forced : No

Audio #3
ID : 4
Format :
Format/Info : Digital Theater Systems
Codec ID : A_DTS
Duration : 2 h 17 min
Bit rate mode : Constant
Bit rate : 1 536 kb/s
Channel(s) : 6 channels
Channel layout : C L R Ls Rs LFE
Sampling rate : 48.0 kHz
Frame rate : 93.750 FPS (512 SPF)
Bit depth : 16 bits
Compression mode : Lossy
Stream size : 1.47 GiB (9%)
Title : 5.1 | 1536
Language : English
Default : No
Forced : No

Text #1
ID : 5
Format : UTF-8
Codec ID : S_TEXT/UTF8
Codec ID/Info : UTF-8 Plain Text
Duration : 2 h 16 min
Bit rate : 7 b/s
Count of elements : 104
Stream size : 7.03 KiB (0%)
Title : Forced
Language : Ukrainian
Default : Yes
Forced : No

Text #2
ID : 6
Format : UTF-8
Codec ID : S_TEXT/UTF8
Codec ID/Info : UTF-8 Plain Text
Duration : 2 h 16 min
Bit rate : 108 b/s
Count of elements : 1677
Stream size : 109 KiB (0%)
Title : Full
Language : Ukrainian
Default : No
Forced : No

Text #3
ID : 7
Format : UTF-8
Codec ID : S_TEXT/UTF8
Codec ID/Info : UTF-8 Plain Text
Duration : 2 h 8 min
Bit rate : 62 b/s
Count of elements : 1884
Stream size : 59.2 KiB (0%)
Title : Full
Language : English
Default : No
Forced : No

Text #4
ID : 8
Format : UTF-8
Codec ID : S_TEXT/UTF8
Codec ID/Info : UTF-8 Plain Text
Duration : 2 h 9 min
Bit rate : 68 b/s
Count of elements : 2095
Stream size : 65.3 KiB (0%)
Title : SDH
Language : English
Default : No
Forced : No

Menu
00:00:00.000 : en:Chapter01
00:09:09.632 : en:Chapter02
00:17:47.233 : en:Chapter03
00:28:31.418 : en:Chapter04
00:34:24.980 : en:Chapter05
00:44:16.863 : en:Chapter06
00:53:57.025 : en:Chapter07
01:01:16.214 : en:Chapter08
01:10:44.907 : en:Chapter09
01:14:59.995 : en:Chapter10
01:23:08.483 : en:Chapter11
01:29:11.721 : en:Chapter12
01:39:12.155 : en:Chapter13
01:46:44.273 : en:Chapter14
01:54:45.545 : en:Chapter15
02:04:18.201 : en:Chapter16
02:10:16.726 : en:Chapter17
Скріншоти


Джерело:
Особиста оцінка: 9 - давно не бачив настільки якісне кіно


 Трекер:    Зареєстрований   

Завантажити / скачати фільм українською



відео для новачків



 Зареєстрований:   2020-05-16 01:28
 Розмір:   15.58 GB 
 Оцінка фільму:   9.6/10 (Голосів: 48)
   
SurFutur 
VIP


З нами з: 12.03.15
Востаннє: 21.09.20
Повідомлень: 482

2020-03-19 03:41  
Може, варто й українські субтитри додати: https://subscene.com/subtitles/just-mercy/ukranian/2165564 ?
Anonymous 







2020-03-19 03:51  
SurFutur
Дякую! Так

leicheman 
Відео Гуртом - фільмокрай
Відео Гуртом - фільмокрай


З нами з: 03.07.14
Востаннє: 22.09.20
Повідомлень: 5415

2020-03-19 10:15  
Хтось мені розповість загадку появи звуку з Амазону? На птиці пишуть , що він звідти. Але на амазоні пишуть, що звук тільки англ і фльми доступний тільки в США.
TPEM 
Відео Гуртом - фільмокрай
Відео Гуртом - фільмокрай


З нами з: 30.01.09
Востаннє: 22.09.20
Повідомлень: 413

2020-03-19 23:11  
leicheman
Швидше, звук з iTunes

piznajko 
Відео Гуртом - субтитрування
Відео Гуртом - субтитрування


З нами з: 24.02.09
Востаннє: 16.09.20
Повідомлень: 2198

2020-03-20 19:17  
TPEM написано:
Швидше, звук з iTunes

Неможиливо - украномовної доріжки немає в iTunes Store Україна, там є тільки кацапська https://itunes.apple.com/ua/movie/just-mercy/id1490719646

Звук або з Google Play або з таємничого Amazon джерела (посилання на яке ще ніхно не знайшов)

-_-B_Е_N_D_E_R-_- 
VIP


З нами з: 04.03.20
Востаннє: 22.09.20
Повідомлень: 533

2020-03-20 23:49  
piznajko написано:
Неможиливо - украномовної доріжки немає в iTunes Store Україна


SurFutur 
VIP


З нами з: 12.03.15
Востаннє: 21.09.20
Повідомлень: 482

2020-03-21 00:35  
-_-B_Е_N_D_E_R-_-

На момент релізу нашої доріжки справді не було в iTunes, принаймні, в українському. Я перевіряв. Її додали лише сьогодні.

piznajko 
Відео Гуртом - субтитрування
Відео Гуртом - субтитрування


З нами з: 24.02.09
Востаннє: 16.09.20
Повідомлень: 2198

2020-03-21 00:48  
-_-B_Е_N_D_E_R-_- написано:
-_-B_Е_N_D_E_R-_-

Якась курва магія відбувається на iTunes Store Україна - ще пару годин тому вони показували за цим посиланням ось це (доказ: http://archive.is/HFWPU):



А тепер показує ось це:



Додано через 4 хвилини 13 секунд:

SurFutur написано:
На момент релізу нашої доріжки справді не було в iTunes, принаймні, в українському. Я перевіряв. Її додали лише сьогодні.

Звідси випливає що iTunes ніяк не міг бути джерелом доріжки у цьому релізі

-_-B_Е_N_D_E_R-_- 
VIP


З нами з: 04.03.20
Востаннє: 22.09.20
Повідомлень: 533

2020-03-21 00:54  
piznajko написано:
Звідси випливає що iTunes ніяк не міг бути джерелом доріжки у цьому релізі

а ще не могло бути бо там доступне лиш передзамовлення

piznajko 
Відео Гуртом - субтитрування
Відео Гуртом - субтитрування


З нами з: 24.02.09
Востаннє: 16.09.20
Повідомлень: 2198

2020-03-21 01:49  
leicheman написано:
Хтось мені розповість загадку появи звуку з Амазону? На птиці пишуть , що він звідти. Але на амазоні пишуть, що звук тільки англ і фльми доступний тільки в США.


Leicheman, я (можливо) розгадав таємницю як дивиться фільми на Amazon Prime Video з укр дубляжем. Потрібно дивиться відео не на сайті amazon.com а створити акаунт на primevideo.com/ (це слід робити з українського IP і при підписці на 7-днів пробного періоду потрібно використовувати українську картку, інакше якщо використовуват картку іншої країни, то й Prime Video тієї іншої країни у вас буде).

У мене на жаль немає зараз під рукою української картки щоб протестувати це і пересвідчитися на всі 100%, але якщо у кого є українська кредитка і він не проти записатися на пробні 7 днів Prime Video - дайте знати чи знайшли ви там україномвоний дубляж Just Mercy

-_-B_Е_N_D_E_R-_- 
VIP


З нами з: 04.03.20
Востаннє: 22.09.20
Повідомлень: 533

2020-03-24 00:46  
piznajko написано:
Leicheman, я (можливо) розгадав таємницю як дивиться фільми на Amazon Prime Video з укр дубляжем. Потрібно дивиться відео не на сайті amazon.com а створити акаунт на primevideo.com/ (це слід робити з українського IP і при підписці на 7-днів пробного періоду потрібно використовувати українську картку, інакше якщо використовуват картку іншої країни, то й Prime Video тієї іншої країни у вас буде).

Нетреба там ніякої кредитки, цей фільм не доступний з укрїнського акаунту

Anonymous 







2020-04-03 19:15  
Торент файл оновлено. Заміна відео на 
marik1 
Новенький


З нами з: 05.08.10
Востаннє: 22.09.20
Повідомлень: 8

2020-04-05 18:51  
Читав книгу, дуже хороша))) сподіваюсь фільм буде вартий уваги)))
ktw14 
Поважний учасник


З нами з: 24.03.11
Востаннє: 22.09.20
Повідомлень: 177

2020-04-08 09:34  
Фільм супер. Всім раджу.
Anonymous 







2020-05-16 01:29  
Торент файл оновлено. Заміна аудіо на якісніше.
Ваш часовий пояс: GMT + 2 Години

Нова тема   Відповісти