Стволи Акімбо / Guns Akimbo (2019) 1080p Ukr/Eng | Sub Eng

Нові коментарі

Нова тема   Відповісти
Автор Повідомлення
BurtonJey 
Свій


З нами з: 16.11.18
Востаннє: 22.09.20
Повідомлень: 87

2020-03-18 23:56  
Стволи Акімбо / Guns Akimbo (2019) 1080p Ukr/Eng | Sub Eng



Жанр: бойовик, комедія
Країна: Велика Британія, Німеччина, Нова Зеландія



Кінокомпанія: Altitude Film Entertainment, Four Knights Film, Hyperion Media Group, Ingenious Media, Maze Pictures, Occupant Entertainment, Pump Metal Films, The Electric Shadow Company, Particular Crowd
Режисер: Джейсон Лі Говден
Актори: Денієл Редкліфф, Самара Вівінг, Ріс Дарбі, Нед Деннегі, Наташа Лю Бордіззо та інші

Сюжет:
Офісний планктон Майлз Гарріз проти своєї волі стає учасником підпільних гладіаторських змагань на смерть "Скізм". Маючи при собі лише пістолети, якими він не вміє користуватися, Майлзу необхідно вижити, в той час як за ним полює чемпіонка "Скізму" - Нікс.


18+

Тривалість: 01:37:48
Якість: 1080p
Відео:
кодек:
розмір кадру: 1920 х 800
бітрейт: 8269 кб/с

Аудіо # 1:
мова: українська
переклад: одноголосий закадровий | Burton Jey
кодек: 5.1
бітрейт: 448 кб/с
застереження: Увага! Озвучення містить ненормативну лексику!

Аудіо # 2:
мова: англійська
переклад: оригінал
кодек: E- 5.1
бітрейт: 640 кб/с

Субтитри # 1:
мова: українська (на написи)
тип: програмні (м'які)
формат: *.srt

Субтитри # 2:
мова: англійська
тип: програмні (м'які)
формат: *.srt
Info
General
Unique ID : 202513839986294130549614873322856719221 (0x985ABF321A189BCBB2C275A6C3712375)
Format :
Format version : Version 4
File size : 6.39 GiB
Duration : 1 h 37 min
Overall bit rate : 9 359 kb/s
Encoded date : UTC 2020-03-18 20:05:00
Writing application : v9.2.0 ('Photograph') 32bit
Writing library : libebml v1.3.3 + v1.4.4

Video
ID : 1
Format : AVC
Format/Info : Advanced Video Codec
Format profile : [email protected]
Format settings : CABAC / 4 Ref Frames
Format settings, CABAC : Yes
Format settings, ReFrames : 4 frames
Codec ID : V_MPEG4/ISO/AVC
Duration : 1 h 37 min
Bit rate mode : Constant
Bit rate : 8 269 kb/s
Nominal bit rate : 10 000 kb/s
Width : 1 920 pixels
Height : 800 pixels
Display aspect ratio : 2.40:1
Frame rate mode : Constant
Frame rate : 23.976 (24000/1001) FPS
Color space : YUV
Chroma subsampling : 4:2:0
Bit depth : 8 bits
Scan type : Progressive
Bits/(Pixel*Frame) : 0.225
Stream size : 5.65 GiB (88%)
Default : Yes
Forced : No
Color range : Limited
Color primaries : BT.709
Transfer characteristics : BT.709
Matrix coefficients : BT.709

Audio #1
ID : 2
Format : AC-3
Format/Info : Audio Coding 3
Commercial name : Dolby Digital
Codec ID : A_AC3
Duration : 1 h 37 min
Bit rate mode : Constant
Bit rate : 448 kb/s
Channel(s) : 6 channels
Channel layout : L R C LFE Ls Rs
Sampling rate : 48.0 kHz
Frame rate : 31.250 FPS (1536 SPF)
Compression mode : Lossy
Stream size : 313 MiB (5%)
Language : Ukrainian
Service kind : Complete Main
Default : No
Forced : No

Audio #2
ID : 3
Format : E-AC-3
Format/Info : Enhanced AC-3
Commercial name : Dolby Digital Plus
Codec ID : A_EAC3
Duration : 1 h 37 min
Bit rate mode : Constant
Bit rate : 640 kb/s
Channel(s) : 6 channels
Channel layout : L R C LFE Ls Rs
Sampling rate : 48.0 kHz
Frame rate : 31.250 FPS (1536 SPF)
Compression mode : Lossy
Stream size : 448 MiB (7%)
Language : English
Service kind : Complete Main
Default : Yes
Forced : No

Text #1
ID : 4
Format : UTF-8
Codec ID : S_TEXT/UTF8
Codec ID/Info : UTF-8 Plain Text
Duration : 1 h 27 min
Bit rate : 4 b/s
Count of elements : 37
Stream size : 2.83 KiB (0%)
Language : Ukrainian
Default : Yes
Forced : No

Text #2
ID : 5
Format : UTF-8
Codec ID : S_TEXT/UTF8
Codec ID/Info : UTF-8 Plain Text
Duration : 1 h 29 min
Bit rate : 72 b/s
Count of elements : 1639
Stream size : 47.6 KiB (0%)
Title : SDH
Language : English
Default : No
Forced : No
Скріншоти



Особиста оцінка: 8 - Веселий трешачок

Допомогти копійчиною, хоч і не обов'язково, але можна тут

Особлива подяка mrgalser за постер


Авторський реліз (завантажувати можна без реєстрації)
 Трекер:    Зареєстрований   

Завантажити / скачати фільм українською



відео для новачків



 Зареєстрований:   2020-03-18 23:56
 Розмір:   6.39 GB 
 Оцінка фільму:   8.2/10 (Голосів: 24)
   
Інші релізи
   Стволи Акімбо / Guns Akimbo (2019) AVC 2xUkr/Eng | Sub Eng 11FrYkT  14 / 0   2.56 GB   2020-04-21 20:49 
   Стволи Акімбо / Guns Akimbo (2019) Remux 1080p 2xUkr/Eng | Sub Eng antik_2008  5 / 0   27.44 GB   2020-04-20 18:36 
   Стволи Акімбо / Guns Akimbo (2019) Ukr/Eng antik_2008  13 / 0   1.86 GB   2020-04-20 00:14 
   Стволи Акімбо / Guns Akimbo (2019) 1080p Ukr/Eng | Sub Eng antik_2008  12 / 0   9.84 GB   2020-04-19 22:37 
   Стволи Акімбо / Guns Akimbo (2019) 720p 2xUkr/Eng | Sub Eng antik_2008  5 / 0   5.36 GB   2020-04-19 22:13 
   Стволи Акімбо / Guns Akimbo (2019) Ukr/Eng BurtonJey  19 / 0   2.21 GB   2020-03-18 18:54 
don pedro 
Попереджень: 1
Попереджень: 1 


З нами з: 29.06.11
Востаннє: 24.09.20
Повідомлень: 17745

2020-03-18 23:57  
А кінотеатральна озвучка колись буде?
BurtonJey 
Свій


З нами з: 16.11.18
Востаннє: 22.09.20
Повідомлень: 87

2020-03-19 00:05  
don pedro
Певен з часом з'явиться, але не в мене.

don pedro 
Попереджень: 1
Попереджень: 1 


З нами з: 29.06.11
Востаннє: 24.09.20
Повідомлень: 17745

2020-03-19 00:09  
BurtonJey
Дякую за відповідь. Нічого не маю проти вашого озвучення, просто мені сподобались голоси в українському трейлері.

bot 
робот


З нами з: 30.09.07
Востаннє: 26.05.05
Повідомлень: 25587

2020-03-19 00:15  
Тему перенесено з Фільми до форуму Фільми в HD


igor911

BurtonJey 
Свій


З нами з: 16.11.18
Востаннє: 22.09.20
Повідомлень: 87

2020-03-19 00:24  
don pedro
Нічого страшного. Я дуже поважаю працю українських локалізаторів, я знаю богатьох з тих, хто стоїть за мікрофоном та сидить за пультом. Якби не всім відомий вірус, яб і не викладав фільм, доки він ще йде у кінотеатрах.

Qui-Gon 
Свій


З нами з: 01.02.09
Востаннє: 21.09.20
Повідомлень: 55

2020-03-19 11:08  
Цей фільм вартий уваги? Бо по трейлерах трешак ще той.
BurtonJey 
Свій


З нами з: 16.11.18
Востаннє: 22.09.20
Повідомлень: 87

2020-03-19 11:43  
Qui-Gon
Якщо трейлер зовсім не сподобався, то і фільм дивитись не варто.

waldi-hurtom 
VIP


З нами з: 07.10.12
Востаннє: 22.09.20
Повідомлень: 1176

2020-03-20 11:35  
Гімно і сам фільм і переклад - кацапсько матючний. 1 з 10.
erqwert 
Частий відвідувач


З нами з: 22.08.09
Востаннє: 20.09.20
Повідомлень: 39

2020-03-22 12:34  
Мені переклад з матюками зайшов цілком. Ласкаво просимо в реальність.
Дякую BurtonJey

KeryaS 
VIP


З нами з: 01.09.14
Востаннє: 24.09.20
Повідомлень: 303

2020-03-30 18:07  
Страшна ахінея)) не знаю яким дивом я його до кінця додивився)
C4acTbe 
Новенький


З нами з: 10.08.12
Востаннє: 22.09.20
Повідомлень: 11

2020-04-17 17:53  
Прикольний фільм, такий собі трешак, щоб один раз подивитись бездумно.
Одноголоса озвучка споачтку не сподобалась, але пізніше, коли зрозумів що вона без цензури і це саме той випадок, коли цензура не потрібна, то навпаки, наівть зрадів Happy

ktw14 
Поважний учасник


З нами з: 24.03.11
Востаннє: 22.09.20
Повідомлень: 177

2020-06-03 23:18  
Переклад клас, фільм трешак. Так разок глянути.
Doctor_faust 
Новенький


З нами з: 25.05.12
Востаннє: 21.09.20
Повідомлень: 3

2020-06-14 11:24  
Класний переклад (матів так взагалі не багато, проти того що очікував), неймовірно крута операторська робота, а от сюжет так собі.
Ваш часовий пояс: GMT + 2 Години

Нова тема   Відповісти