Покахонтас. Дилогія / Pocahontas. Dilogy (1995-1998) 1080p H.265 2xUkr/Eng | Sub Eng

Нові коментарі

Нова тема   Відповісти
Автор Повідомлення
Anonymous 







2020-03-18 18:52  
Покахонтас. Дилогія / Pocahontas. Dilogy (1995-1998) 1080p H.265 2xUkr/Eng | Sub Eng

Покахонтас. Дилогія / Pocahontas. Dilogy (1995-1998) 1080p H.265 2xUkr/Eng | Sub Eng

1. 2.

1. Покахонтас / Покагонтес / Pocahontas (1995) 1080p H.265 2xUkr/Eng | Sub Eng
Покахонтас / Покагонтес / Pocahontas (1995) 1080p H.265 2xUkr/Eng | Sub Eng

Покахонтас. Дилогія / Pocahontas. Dilogy (1995-1998) 1080p H.265 2xUkr/Eng | Sub Eng


Жанр: пригодницький, драма, анімація
Країна: США
Кінокомпанія: Walt Disney Pictures, Walt Disney Feature Animation / Buena Vista Pictures
Режисер: Майк Гебріел, Ерік Голдберг
Ролі озвучують: Джо Бейкер, Крістіан Бейл, Ірен Бедард, Біллі Конноллі, Джим Каммінгс та інші

Сюжет:
Екіпаж, як пояснює капітан, пливе назустріч пригодам, успіху, багатству. Але сам капітан має намір знайти там щось цілком визначене — золото. Корабель причалює до одного з берегів Нового Світу, щоб запастися водою. Джон Сміт, головний герой, відправляється на розвідку, тоді як Покагонтес - принцеса індіанців - стежить за незвичайними людьми, які вторглися на їх землі. Тут вона бачить незнайомця, Джона, і стежить за ним. Той у свою чергу в пів-ока спостерігає за нею і ось, нарешті, вони зустрічаються... Кохання з першого погляду... Заборонене кохання, яке має пройти через безліч перешкод...

Тривалість: 01:21:08
Якість:

Відео:
кодек: H.265 (HEVC)
розмір кадру: 1920 x 1080
бітрейт: 4 690 кб/с
бітова глибина: 10 біт

Увага! Перед завантаженням переконайтесь, що ваш пристрій відтворення (та/або ПЗ) підтримує H.265 (HEVC)

Аудіо # 1:
мова: українська
переклад: професійний дубльований | Студія LeDoyen
кодек: AC-3 2.0
бітрейт: 192 кб/с

Аудіо # 2:
мова: українська
переклад: багатоголосий закадровий | Повне озвучення і на піснях також!
кодек: AC-3 5.1
бітрейт: 640 кб/с
джерело озвучення:

Аудіо # 3:
мова: українська
переклад: одноголосий закадровий | На піснях залишений оригінал і додані субтитри з перекладом! Вони присутні в роздачі окремим файлом.
кодек: AC-3 5.1
бітрейт: 640 кб/с
джерело озвучення:

Аудіо # 4:
мова: англійська
переклад: оригінал
кодек: 5.1
бітрейт: 1510 кб/с

Субтитри # 1: (Forced)
мова: українська
тип: програмні (м'які)
формат: *.srt

Субтитри # 2: (Full)
мова: англійська
тип: програмні (м'які)
формат: *.srt


Info
Код:
General
Unique ID                                : 231969738656795797966014136000405417419 (0xAE83BF2054B617616EB8A329C92DADCB)
Complete name                            : 1. Pocahontas (1995) 1080p H.265 [2xUKR_ENG] [Hurtom].
Format                                   :
Format version                           : Version 4
File size                                : 4.35 GiB
Duration                                 : 1 h 21 min
Overall bit rate                         : 7 675 kb/s
Movie name                               : Покахонтас / Покагонтес / Pocahontas (1995)
Encoded date                             : UTC 2020-03-16 21:10:36
Writing application                      : v20.0.0 ('I Am The Sun') 64-bit
Writing library                          : libebml v1.3.5 + v1.4.8
Cover                                    : Yes
Attachments                              : Cover.png

Video
ID                                       : 1
Format                                   : HEVC
Format/Info                              : High Efficiency Video Coding
Format profile                           : Main [email protected]@High
Codec ID                                 : V_MPEGH/ISO/HEVC
Duration                                 : 1 h 21 min
Bit rate                                 : 4 690 kb/s
Width                                    : 1 920 pixels
Height                                   : 1 080 pixels
Display aspect ratio                     : 16:9
Frame rate mode                          : Constant
Frame rate                               : 23.976 (23976/1000) FPS
Original frame rate                      : 23.976 (24000/1001) FPS
Color space                              : YUV
Chroma subsampling                       : 4:2:0
Bit depth                                : 10 bits
Bits/(Pixel*Frame)                       : 0.094
Stream size                              : 2.66 GiB (61%)
Title                                    : Покахонтас / Покагонтес / Pocahontas (1995)
Writing library                          : x265 3.3+1-g554c887ac:[Windows][MSVC 1924][64 bit] 10bit
Encoding settings                        : cpuid=1111039 / frame-threads=3 / numa-pools=12 / wpp / no-pmode / no-pme / no-psnr / no-ssim / log-level=2 / input-csp=1 / input-res=1920x1080 / interlace=0 / total-frames=108724 / level-idc=41 / high-tier=1 / uhd-bd=0 / ref=5 / no-allow-non-conformance / no-repeat-headers / annexb / no-aud / no-hrd / info / hash=0 / no-temporal-layers / open-gop / min-keyint=23 / keyint=240 / gop-lookahead=0 / bframes=10 / b-adapt=2 / b-pyramid / bframe-bias=0 / rc-lookahead=60 / lookahead-slices=4 / scenecut=40 / hist-scenecut=0 / radl=0 / no-splice / no-intra-refresh / ctu=32 / min-cu-size=8 / rect / amp / max-tu-size=32 / tu-inter-depth=4 / tu-intra-depth=4 / limit-tu=1 / rdoq-level=2 / dynamic-rd=0.00 / no-ssim-rd / signhide / no-tskip / nr-intra=0 / nr-inter=0 / no-constrained-intra / no-strong-intra-smoothing / max-merge=4 / limit-refs=2 / limit-modes / me=3 / subme=7 / merange=57 / temporal-mvp / no-frame-dup / no-hme / weightp / weightb / no-analyze-src-pics / deblock=-3:-3 / no-sao / no-sao-non-deblock / rd=6 / selective-sao=0 / no-early-skip / no-rskip / no-fast-intra / no-tskip-fast / no-cu-lossless / no-b-intra / no-splitrd-skip / rdpenalty=0 / psy-rd=2.00 / psy-rdoq=1.00 / no-rd-refine / no-lossless / cbqpoffs=0 / crqpoffs=0 / rc=crf / crf=20.0 / qcomp=0.65 / qpstep=4 / stats-write=0 / stats-read=0 / vbv-maxrate=50000 / vbv-bufsize=50000 / vbv-init=0.9 / crf-max=0.0 / crf-min=0.0 / ipratio=1.40 / pbratio=1.30 / aq-mode=1 / aq-strength=1.00 / no-cutree / zone-count=0 / no-strict-cbr / qg-size=32 / no-rc-grain / qpmax=69 / qpmin=0 / no-const-vbv / sar=1 / overscan=0 / videoformat=5 / range=0 / colorprim=1 / transfer=1 / colormatrix=1 / chromaloc=0 / display-window=0 / cll=0,0 / min-luma=0 / max-luma=1023 / log2-max-poc-lsb=8 / vui-timing-info / vui-hrd-info / slices=1 / no-opt-qp-pps / no-opt-ref-list-length-pps / no-multi-pass-opt-rps / scenecut-bias=0.05 / hist-threshold=0.01 / no-opt-cu-delta-qp / no-aq-motion / no-hdr10 / no-hdr10-opt / no-dhdr10-opt / no-idr-recovery-sei / analysis-reuse-level=0 / analysis-save-reuse-level=0 / analysis-load-reuse-level=0 / scale-factor=0 / refine-intra=0 / refine-inter=0 / refine-mv=1 / refine-ctu-distortion=0 / no-limit-sao / ctu-info=0 / no-lowpass-dct / refine-analysis-type=0 / copy-pic=1 / max-ausize-factor=1.0 / no-dynamic-refine / no-single-sei / no-hevc-aq / no-svt / no-field / qp-adaptation-range=1.00 / no-scenecut-aware-qpconformance-window-offsets / right=0 / bottom=0
Default                                  : Yes
Forced                                   : No
Color range                              : Limited
Color primaries                          : BT.709
Transfer characteristics                 : BT.709
Matrix coefficients                      : BT.709

Audio #1
ID                                       : 2
Format                                   : AC-3
Format/Info                              : Audio Coding 3
Commercial name                          : Dolby Digital
Codec ID                                 : A_AC3
Duration                                 : 1 h 21 min
Bit rate mode                            : Constant
Bit rate                                 : 192 kb/s
Channel(s)                               : 2 channels
Channel layout                           : L R
Sampling rate                            : 48.0 kHz
Frame rate                               : 31.250 FPS (1536 SPF)
Compression mode                         : Lossy
Stream size                              : 111 MiB (3%)
Title                                    : / 2.0 Ch / 192 kbps / ПД / Студія LeDoyen
Language                                 : Ukrainian
Service kind                             : Complete Main
Default                                  : Yes
Forced                                   : Yes

Audio #2
ID                                       : 3
Format                                   : AC-3
Format/Info                              : Audio Coding 3
Commercial name                          : Dolby Digital
Codec ID                                 : A_AC3
Duration                                 : 1 h 21 min
Bit rate mode                            : Constant
Bit rate                                 : 640 kb/s
Channel(s)                               : 6 channels
Channel layout                           : L R C LFE Ls Rs
Sampling rate                            : 48.0 kHz
Frame rate                               : 31.250 FPS (1536 SPF)
Compression mode                         : Lossy
Stream size                              : 371 MiB (8%)
Title                                    : / 5.1 Ch / 640 kbps / БЗ / Baibako.TV
Language                                 : Ukrainian
Service kind                             : Complete Main
Default                                  : No
Forced                                   : No

Audio #3
ID                                       : 4
Format                                   : AC-3
Format/Info                              : Audio Coding 3
Commercial name                          : Dolby Digital
Codec ID                                 : A_AC3
Duration                                 : 1 h 21 min
Bit rate mode                            : Constant
Bit rate                                 : 640 kb/s
Channel(s)                               : 6 channels
Channel layout                           : L R C LFE Ls Rs
Sampling rate                            : 48.0 kHz
Frame rate                               : 31.250 FPS (1536 SPF)
Compression mode                         : Lossy
Stream size                              : 371 MiB (8%)
Title                                    : / 5.1 Ch / 640 kbps / БЗ / Baibako.TV / Без озвучення на піснях
Language                                 : Ukrainian
Service kind                             : Complete Main
Default                                  : No
Forced                                   : No

Audio #4
ID                                       : 5
Format                                   :
Format/Info                              : Digital Theater Systems
Codec ID                                 : A_DTS
Duration                                 : 1 h 21 min
Bit rate mode                            : Constant
Bit rate                                 : 1 509 kb/s
Channel(s)                               : 6 channels
Channel layout                           : C L R Ls Rs LFE
Sampling rate                            : 48.0 kHz
Frame rate                               : 93.750 FPS (512 SPF)
Bit depth                                : 24 bits
Compression mode                         : Lossy
Stream size                              : 876 MiB (20%)
Title                                    : / 5.1 Ch / 1509 kbps / Original
Language                                 : English
Default                                  : No
Forced                                   : No

Text #1
ID                                       : 6
Format                                   : UTF-8
Codec ID                                 : S_TEXT/UTF8
Codec ID/Info                            : UTF-8 Plain Text
Duration                                 : 1 h 7 min
Bit rate                                 : 19 b/s
Count of elements                        : 213
Stream size                              : 9.62 KiB (0%)
Title                                    : Forced
Language                                 : Ukrainian
Default                                  : Yes
Forced                                   : Yes

Text #2
ID                                       : 7
Format                                   : UTF-8
Codec ID                                 : S_TEXT/UTF8
Codec ID/Info                            : UTF-8 Plain Text
Duration                                 : 1 h 14 min
Bit rate                                 : 61 b/s
Count of elements                        : 976
Stream size                              : 33.4 KiB (0%)
Title                                    : Full
Language                                 : English
Default                                  : No
Forced                                   : No

Menu
00:00:00.000                             : en:Off To The New World / "The Virginia Company"
00:03:59.906                             : en:Governor Ratcliffe
00:05:29.495                             : en:Opening Credits / "Steady As A Beating Drum"
00:07:41.169                             : en:Pocahontas
00:10:50.316                             : en:Pocahontas Tells Her Father About Her Dream
00:12:38.466                             : en:"Just Around The Riverbend"
00:15:08.908                             : en:Grandmother Willow
00:16:48.757                             : en:Advice From Grandmother Willow / "Listen With Your Heart"
00:18:13.801                             : en:The New World
00:22:39.608                             : en:Powhatan's Council
00:25:01.416                             : en:Digging For Gold / "Mine, Mind, Mine"
00:28:51.438                             : en:John Smith Meets Pocahontas
00:33:32.343                             : en:A Clash Between The Settlers And The Indians
00:35:59.782                             : en:Getting To Know One Other
00:39:19.857                             : en:"Colors Of The Wind"
00:43:13.424                             : en:Finishing The Fortess
00:45:37.151                             : en:In The Cornfield
00:48:03.046                             : en:John Smith Meets Grandmother Willow
00:50:39.911                             : en:The Warriors Arrive
00:54:07.953                             : en:Pocahontas Runs Off to Meet John Smith
00:56:04.361                             : en:The Final Meeting
01:01:50.373                             : en:Pocahontas Visits The Prisoner
01:06:25.314                             : en:"Savages"
01:08:17.384                             : en:Pocahontas Understands Her Dream
01:09:24.660                             : en:Sunrise / "Savages" (Part 2)
01:10:30.017                             : en:Pocahontas Saves John Smith
01:13:35.202                             : en:The Departure
01:15:37.658                             : en:End Credits / "If I Never Knew You" & "Colors Of The Wind"
Світлини



2. Покахонтас 2: Повернення в новий світ / Pocahontas II: Journey to a New World (1998) 1080p H.265 2xUkr/Eng | Sub Eng
Покахонтас 2: Повернення в новий світ / Pocahontas II: Journey to a New World (1998) 1080p H.265 2xUkr/Eng | Sub Eng

Покахонтас. Дилогія / Pocahontas. Dilogy (1995-1998) 1080p H.265 2xUkr/Eng | Sub Eng


Жанр: анімація, пригоди, драма, сімейний, мюзикл, романтичний
Країна: США
Кінокомпанія: Disneytoon Studios, Walt Disney Pictures
Режисер: Том Еллері, Бредлі Реймонд
Ролі озвучують: Ірен Бедард, Донал Гібсон, Джим Каммінгс, Фінола Хьюз, Лінда Хан, Рассел Мінс, Девід Огден Стаєрс та інші

Сюжет:
Коли новина про смерть Джона Сміта досягає Америки, дочка індіанського вождя Покахонтас, разом зі своїм другом, єнотом Міко, відправляється у важкий шлях у Лондон щоб встановити мир між двома великими землями. Однак, правитель Реткліфф неподалік, він намагається захопити Джеймстаун і ціна для нього не має значення, ніщо не зупинить його в бажанні обмовити принцесу ...

Тривалість: 01:13:09
Якість:

Відео:
кодек: H.265 (HEVC)
розмір кадру: 1920 x 1080
бітрейт: 4 844 кб/с
бітова глибина: 10 біт

Увага! Перед завантаженням переконайтесь, що ваш пристрій відтворення (та/або ПЗ) підтримує H.265 (HEVC)

Аудіо # 1:
мова: українська
переклад: професійний дубльований | Студія LeDoyen
кодек: AC-3 2.0
бітрейт: 192 кб/с

Аудіо # 2:
мова: українська
переклад: багатоголосий закадровий
кодек: AC-3 2.0
бітрейт: 192 кб/с

Аудіо # 3:
мова: англійська
переклад: оригінал
кодек: 5.1
бітрейт: 1510 кб/с

Субтитри # 1-2: (Full, SDH)
мова: англійська
тип: програмні (м'які)
формат: *.srt


Info
Код:
General
Unique ID                                : 246492652463696808891872731752730285912 (0xB970C20F3ED54AE9922DC21E4BBD5758)
Complete name                            : 2. Pocahontas II. Journey to a New World (1998) 1080p H.265 [2xUKR_ENG] [Hurtom].
Format                                   :
Format version                           : Version 4
File size                                : 3.44 GiB
Duration                                 : 1 h 13 min
Overall bit rate                         : 6 741 kb/s
Movie name                               : Покахонтас 2: Повернення в новий світ / Pocahontas II: Journey to a New World (1998)
Encoded date                             : UTC 2020-03-16 21:29:43
Writing application                      : v20.0.0 ('I Am The Sun') 64-bit
Writing library                          : libebml v1.3.5 + v1.4.8
Cover                                    : Yes
Attachments                              : cover.jpg

Video
ID                                       : 1
Format                                   : HEVC
Format/Info                              : High Efficiency Video Coding
Format profile                           : Main [email protected]@High
Codec ID                                 : V_MPEGH/ISO/HEVC
Duration                                 : 1 h 13 min
Bit rate                                 : 4 844 kb/s
Width                                    : 1 920 pixels
Height                                   : 1 080 pixels
Display aspect ratio                     : 16:9
Frame rate mode                          : Constant
Frame rate                               : 23.976 (23976/1000) FPS
Original frame rate                      : 23.976 (24000/1001) FPS
Color space                              : YUV
Chroma subsampling                       : 4:2:0
Bit depth                                : 10 bits
Bits/(Pixel*Frame)                       : 0.097
Stream size                              : 2.48 GiB (72%)
Title                                    : Покахонтас 2: Повернення в новий світ / Pocahontas II: Journey to a New World (1998)
Writing library                          : x265 3.3+1-g554c887ac:[Windows][MSVC 1924][64 bit] 10bit
Encoding settings                        : cpuid=1111039 / frame-threads=3 / numa-pools=12 / wpp / no-pmode / no-pme / no-psnr / no-ssim / log-level=2 / input-csp=1 / input-res=1920x1080 / interlace=0 / total-frames=97926 / level-idc=41 / high-tier=1 / uhd-bd=0 / ref=5 / no-allow-non-conformance / no-repeat-headers / annexb / no-aud / no-hrd / info / hash=0 / no-temporal-layers / open-gop / min-keyint=23 / keyint=240 / gop-lookahead=0 / bframes=10 / b-adapt=2 / b-pyramid / bframe-bias=0 / rc-lookahead=60 / lookahead-slices=4 / scenecut=40 / hist-scenecut=0 / radl=0 / no-splice / no-intra-refresh / ctu=32 / min-cu-size=8 / rect / amp / max-tu-size=32 / tu-inter-depth=4 / tu-intra-depth=4 / limit-tu=1 / rdoq-level=2 / dynamic-rd=0.00 / no-ssim-rd / signhide / no-tskip / nr-intra=0 / nr-inter=0 / no-constrained-intra / no-strong-intra-smoothing / max-merge=4 / limit-refs=2 / limit-modes / me=3 / subme=7 / merange=57 / temporal-mvp / no-frame-dup / no-hme / weightp / weightb / no-analyze-src-pics / deblock=-3:-3 / no-sao / no-sao-non-deblock / rd=6 / selective-sao=0 / no-early-skip / no-rskip / no-fast-intra / no-tskip-fast / no-cu-lossless / no-b-intra / no-splitrd-skip / rdpenalty=0 / psy-rd=2.00 / psy-rdoq=1.00 / no-rd-refine / no-lossless / cbqpoffs=0 / crqpoffs=0 / rc=crf / crf=20.0 / qcomp=0.65 / qpstep=4 / stats-write=0 / stats-read=0 / vbv-maxrate=50000 / vbv-bufsize=50000 / vbv-init=0.9 / crf-max=0.0 / crf-min=0.0 / ipratio=1.40 / pbratio=1.30 / aq-mode=1 / aq-strength=1.00 / no-cutree / zone-count=0 / no-strict-cbr / qg-size=32 / no-rc-grain / qpmax=69 / qpmin=0 / no-const-vbv / sar=1 / overscan=0 / videoformat=5 / range=0 / colorprim=1 / transfer=1 / colormatrix=1 / chromaloc=0 / display-window=0 / cll=0,0 / min-luma=0 / max-luma=1023 / log2-max-poc-lsb=8 / vui-timing-info / vui-hrd-info / slices=1 / no-opt-qp-pps / no-opt-ref-list-length-pps / no-multi-pass-opt-rps / scenecut-bias=0.05 / hist-threshold=0.01 / no-opt-cu-delta-qp / no-aq-motion / no-hdr10 / no-hdr10-opt / no-dhdr10-opt / no-idr-recovery-sei / analysis-reuse-level=0 / analysis-save-reuse-level=0 / analysis-load-reuse-level=0 / scale-factor=0 / refine-intra=0 / refine-inter=0 / refine-mv=1 / refine-ctu-distortion=0 / no-limit-sao / ctu-info=0 / no-lowpass-dct / refine-analysis-type=0 / copy-pic=1 / max-ausize-factor=1.0 / no-dynamic-refine / no-single-sei / no-hevc-aq / no-svt / no-field / qp-adaptation-range=1.00 / no-scenecut-aware-qpconformance-window-offsets / right=0 / bottom=0
Default                                  : Yes
Forced                                   : No
Color range                              : Limited
Color primaries                          : BT.709
Transfer characteristics                 : BT.709
Matrix coefficients                      : BT.709

Audio #1
ID                                       : 2
Format                                   : AC-3
Format/Info                              : Audio Coding 3
Commercial name                          : Dolby Digital
Codec ID                                 : A_AC3
Duration                                 : 1 h 13 min
Bit rate mode                            : Constant
Bit rate                                 : 192 kb/s
Channel(s)                               : 2 channels
Channel layout                           : L R
Sampling rate                            : 48.0 kHz
Frame rate                               : 31.250 FPS (1536 SPF)
Compression mode                         : Lossy
Stream size                              : 100 MiB (3%)
Title                                    : / 2.0 Ch / 192 kbps / ПД / Студія LeDoyen
Language                                 : Ukrainian
Service kind                             : Complete Main
Default                                  : Yes
Forced                                   : Yes

Audio #2
ID                                       : 3
Format                                   : AC-3
Format/Info                              : Audio Coding 3
Commercial name                          : Dolby Digital
Codec ID                                 : A_AC3
Duration                                 : 1 h 13 min
Bit rate mode                            : Constant
Bit rate                                 : 192 kb/s
Channel(s)                               : 2 channels
Channel layout                           : L R
Sampling rate                            : 48.0 kHz
Frame rate                               : 31.250 FPS (1536 SPF)
Compression mode                         : Lossy
Stream size                              : 100 MiB (3%)
Title                                    : / 2.0 Ch / 192 kbps / БЗ / K1
Language                                 : Ukrainian
Service kind                             : Complete Main
Default                                  : No
Forced                                   : No

Audio #3
ID                                       : 4
Format                                   :
Format/Info                              : Digital Theater Systems
Codec ID                                 : A_DTS
Duration                                 : 1 h 13 min
Bit rate mode                            : Constant
Bit rate                                 : 1 509 kb/s
Channel(s)                               : 6 channels
Channel layout                           : C L R Ls Rs LFE
Sampling rate                            : 48.0 kHz
Frame rate                               : 93.750 FPS (512 SPF)
Bit depth                                : 24 bits
Compression mode                         : Lossy
Stream size                              : 790 MiB (22%)
Title                                    : / 5.1 Ch / 1509 kbps / Original
Language                                 : English
Default                                  : No
Forced                                   : No

Text #1
ID                                       : 5
Format                                   : UTF-8
Codec ID                                 : S_TEXT/UTF8
Codec ID/Info                            : UTF-8 Plain Text
Duration                                 : 1 h 6 min
Bit rate                                 : 49 b/s
Count of elements                        : 686
Stream size                              : 24.4 KiB (0%)
Title                                    : Full
Language                                 : English
Default                                  : No
Forced                                   : No

Text #2
ID                                       : 6
Format                                   : UTF-8
Codec ID                                 : S_TEXT/UTF8
Codec ID/Info                            : UTF-8 Plain Text
Duration                                 : 1 h 7 min
Bit rate                                 : 59 b/s
Count of elements                        : 888
Stream size                              : 29.3 KiB (0%)
Title                                    : SDH
Language                                 : English
Default                                  : No
Forced                                   : No

Menu
00:00:00.000                             : en:1. The Downfall Of John Smith
00:02:53.298                             : en:2. Main Title/Winter Fun
00:05:57.107                             : en:3. "Where Do I Go From Here"
00:09:32.071                             : en:4. Tensions Mount
00:12:31.668                             : en:5. A Gift Of Peace
00:15:27.593                             : en:6. Grandmother Willow
00:17:40.518                             : en:7. Saying Goodbye
00:21:18.319                             : en:8. Stowaways
00:25:42.124                             : en:9. "What A Day In London"
00:31:23.632                             : en:10. Mrs. Jenkins
00:33:28.173                             : en:11. Ratcliffe Sets A Trap
00:35:44.976                             : en:12. "Wait 'Til He Sees You"
00:40:57.580                             : en:13. The Hunt Ball
00:45:17.882                             : en:14. "Things Are Not What They Appear"
00:47:53.788                             : en:15. Savage Behavior
00:49:34.680                             : en:16. A Mysterious Stranger
00:51:09.525                             : en:17. A Daring Rescue
00:55:48.345                             : en:18. Reprise: "Where Do I Go From Here"
00:58:09.319                             : en:19. Audience With A Princess
00:59:50.337                             : en:20. Stopping The Armada
01:03:31.349                             : en:21. Different Paths
01:05:55.285                             : en:22. Honoring The Heart
01:07:35.134                             : en:23. "Between Two Worlds"/End Credits
Світлини




Джерело: &
Особиста оцінка: 0 - не дивився


Срібний реліз (на рейтинг впливає 50% завантаженого)
 Трекер:    Зареєстрований   

Завантажити / скачати мультфільм українською



відео для новачків



 Зареєстрований:   2020-03-18 18:52
 Розмір:   7.8 GB 
 Оцінка мультфільму:   8.9/10 (Голосів: 8)
   
Ваш часовий пояс: GMT + 2 Години

Нова тема   Відповісти