Кімната бажань / The Room (2019) 1080p H.265 Ukr/Eng | Sub Eng

Нові коментарі

Нова тема   Відповісти
Автор Повідомлення
Anonymous 







2020-03-18 19:23  
Кімната бажань / The Room (2019) 1080p H.265 Ukr/Eng | Sub Eng

Кімната бажань / The Room (2019) 1080p H.265 Ukr/Eng | Sub Eng


Жанр: детектив, драма, фантастика
Країна: Франція, Бельгія, Люксембург
Кінокомпанія: Les Films du Poisson, Versus Production
Режисер: Крістіан Волькман
Актори: Ольга Куриленко, Кевін Янссенс, Маріанн Бург, Френсіс Чепмен, Джон Фландерс, Ерік Жигу, Мікаель Кахья, Керол Уейерс, Джошуа Вілсон

Сюжет:
Молода пара Кейт і Метт перебралися з густонаселеного Нью-Йорка в самотній будиночок. Місцеві жителі радо їх зустріли, але попередили про історію будинку – його попередні власники були вбиті. "Будинок на крові" – такі заголовки знайшов Метт у місцевих ЗМІ. Це не вселяє оптимізму, звичайно ж. Але після першого часу проживання нічого дивного не відбулося. Пара дуже сильно мріє про дитину, але дві попередні вагітності Кейт закінчилися викиднями. Вони не збираються здаватися, але надії мало. І все ж їх будинок не такий простий, як здавалося спочатку. Метт знайшов дивну замуровану кімнату. Вона виконує будь-які матеріальні бажання. Пляшка віскі, коштовності, оригінал Ван Гога, мільйон доларів – що завгодно. Коли вони награлися, Кейт вирішила попросити те, чого вона хоче найбільше – дитини. Тільки те, що створено в кімнаті, не має права залишати будинок... А хлопчик колись захоче на свободу.

Тривалість: 01:39:11
Якість:

Відео:
кодек: H.265 (HEVC)
розмір кадру: 1920 x 804
бітрейт: 7 354 кб/с
бітова глибина: 10 біт

Увага! Перед завантаженням переконайтесь, що ваш пристрій відтворення (та/або ПЗ) підтримує H.265 (HEVC)

Аудіо # 1:
мова: українська
переклад: професійний дубльований
кодек: AC-3 5.1
бітрейт: 384 кб/с

Аудіо # 2:
мова: англійська
переклад: оригінал
кодек: 5.1
бітрейт: 1510 кб/с

Субтитри # 1: (Full)
мова: англійська
тип: програмні (м'які)
формат: *.srt


Info
Код:
General
Unique ID                                : 78285439914039164852429967818297614362 (0x3AE53A2FF07E289920C6CD7D30CAA01A)
Complete name                            : The Room (2019) 1080p H.265 [UKR_ENG] [Hurtom].
Format                                   :
Format version                           : Version 4
File size                                : 6.41 GiB
Duration                                 : 1 h 39 min
Overall bit rate                         : 9 250 kb/s
Movie name                               : Кімната бажань / The Room (2019)
Encoded date                             : UTC 2020-03-17 21:56:09
Writing application                      : v20.0.0 ('I Am The Sun') 64-bit
Writing library                          : libebml v1.3.5 + v1.4.8
Cover                                    : Yes
Attachments                              : cover.jpg

Video
ID                                       : 1
Format                                   : HEVC
Format/Info                              : High Efficiency Video Coding
Format profile                           : Main [email protected]@High
Codec ID                                 : V_MPEGH/ISO/HEVC
Duration                                 : 1 h 39 min
Bit rate                                 : 7 353 kb/s
Width                                    : 1 920 pixels
Height                                   : 804 pixels
Display aspect ratio                     : 2.40:1
Frame rate mode                          : Constant
Frame rate                               : 24.000 FPS
Color space                              : YUV
Chroma subsampling                       : 4:2:0
Bit depth                                : 10 bits
Bits/(Pixel*Frame)                       : 0.198
Stream size                              : 5.09 GiB (79%)
Title                                    : Кімната бажань / The Room (2019)
Writing library                          : x265 3.2+5-354901970679:[Windows][clang 8.0.1][64 bit] 10bit
Encoding settings                        : cpuid=1049583 / frame-threads=5 / numa-pools=4 / wpp / no-pmode / no-pme / no-psnr / no-ssim / log-level=3 / input-csp=1 / input-res=1920x804 / interlace=0 / total-frames=0 / level-idc=41 / high-tier=1 / uhd-bd=0 / ref=5 / allow-non-conformance / no-repeat-headers / annexb / no-aud / no-hrd / info / hash=0 / no-temporal-layers / open-gop / min-keyint=24 / keyint=240 / gop-lookahead=0 / bframes=10 / b-adapt=2 / b-pyramid / bframe-bias=0 / rc-lookahead=40 / lookahead-slices=5 / scenecut=40 / radl=0 / no-splice / no-intra-refresh / ctu=32 / min-cu-size=8 / rect / no-amp / max-tu-size=32 / tu-inter-depth=4 / tu-intra-depth=4 / limit-tu=1 / rdoq-level=1 / dynamic-rd=0.00 / no-ssim-rd / signhide / no-tskip / nr-intra=0 / nr-inter=0 / no-constrained-intra / no-strong-intra-smoothing / max-merge=5 / limit-refs=1 / no-limit-modes / me=3 / subme=7 / merange=57 / temporal-mvp / no-frame-dup / no-hme / weightp / no-weightb / no-analyze-src-pics / deblock=-3:-3 / no-sao / no-sao-non-deblock / rd=4 / selective-sao=0 / early-skip / no-rskip / no-fast-intra / no-tskip-fast / no-cu-lossless / b-intra / no-splitrd-skip / rdpenalty=0 / psy-rd=2.00 / psy-rdoq=1.00 / no-rd-refine / no-lossless / cbqpoffs=0 / crqpoffs=0 / rc=crf / crf=20.0 / qcomp=0.60 / qpstep=4 / stats-write=0 / stats-read=0 / vbv-maxrate=50000 / vbv-bufsize=50000 / vbv-init=0.9 / crf-max=0.0 / crf-min=0.0 / ipratio=1.40 / pbratio=1.30 / aq-mode=3 / aq-strength=1.00 / no-cutree / zone-count=0 / no-strict-cbr / qg-size=32 / no-rc-grain / qpmax=69 / qpmin=0 / no-const-vbv / sar=1 / overscan=0 / videoformat=5 / range=0 / colorprim=2 / transfer=2 / colormatrix=2 / chromaloc=0 / display-window=0 / cll=0,0 / min-luma=0 / max-luma=1023 / log2-max-poc-lsb=8 / vui-timing-info / vui-hrd-info / slices=1 / no-opt-qp-pps / no-opt-ref-list-length-pps / no-multi-pass-opt-rps / scenecut-bias=0.05 / no-opt-cu-delta-qp / no-aq-motion / no-hdr / no-hdr-opt / no-dhdr10-opt / no-idr-recovery-sei / analysis-reuse-level=5 / scale-factor=0 / refine-intra=0 / refine-inter=0 / refine-mv=1 / refine-ctu-distortion=0 / no-limit-sao / ctu-info=0 / no-lowpass-dct / refine-analysis-type=0 / copy-pic=1 / max-ausize-factor=1.0 / no-dynamic-refine / no-single-sei / no-hevc-aq / no-svt / no-field / qp-adaptation-range=1.00
Language                                 : English
Default                                  : Yes
Forced                                   : No
Color range                              : Limited

Audio #1
ID                                       : 2
Format                                   : AC-3
Format/Info                              : Audio Coding 3
Commercial name                          : Dolby Digital
Codec ID                                 : A_AC3
Duration                                 : 1 h 39 min
Bit rate mode                            : Constant
Bit rate                                 : 384 kb/s
Channel(s)                               : 6 channels
Channel layout                           : L R C LFE Ls Rs
Sampling rate                            : 48.0 kHz
Frame rate                               : 31.250 FPS (1536 SPF)
Compression mode                         : Lossy
Stream size                              : 272 MiB (4%)
Title                                    : / 5.1 Ch / 384 kbps / ПД / iTunes
Language                                 : Ukrainian
Service kind                             : Complete Main
Default                                  : Yes
Forced                                   : Yes

Audio #2
ID                                       : 3
Format                                   :
Format/Info                              : Digital Theater Systems
Codec ID                                 : A_DTS
Duration                                 : 1 h 39 min
Bit rate mode                            : Constant
Bit rate                                 : 1 509 kb/s
Channel(s)                               : 6 channels
Channel layout                           : C L R Ls Rs LFE
Sampling rate                            : 48.0 kHz
Frame rate                               : 93.750 FPS (512 SPF)
Bit depth                                : 16 bits
Compression mode                         : Lossy
Stream size                              : 1.05 GiB (16%)
Title                                    : / 5.1 Ch / 1509 kbps / Original
Language                                 : English
Default                                  : No
Forced                                   : No

Text
ID                                       : 4
Format                                   : UTF-8
Codec ID                                 : S_TEXT/UTF8
Codec ID/Info                            : UTF-8 Plain Text
Duration                                 : 1 h 32 min
Bit rate                                 : 22 b/s
Count of elements                        : 636
Stream size                              : 15.5 KiB (0%)
Title                                    : Full
Language                                 : English
Default                                  : No
Forced                                   : No

Menu
00:00:00.000                             : en:Глава 01
00:09:01.500                             : en:Глава 02
00:19:51.500                             : en:Глава 03
00:29:38.500                             : en:Глава 04
00:38:45.500                             : en:Глава 05
00:49:33.000                             : en:Глава 06
01:02:01.000                             : en:Глава 07
01:10:37.500                             : en:Глава 08
01:20:13.500                             : en:Глава 09
01:30:57.500                             : en:Глава 10
Світлини




Джерело: &
Особиста оцінка: 0 - не дивився


 Трекер:    Зареєстрований   

Завантажити / скачати фільм українською



відео для новачків



 Зареєстрований:   2020-03-18 19:23
 Розмір:   6.41 GB 
 Оцінка фільму:   10/10 (Голосів: 3)
   
Інші релізи
   Кімната бажань / The Room (2019) Remux 1080p Ukr/Eng | Sub Eng antik_2008  4 / 0   18.81 GB   2020-03-14 19:28 
   Кімната бажань / The Room (2019) 1080p Ukr/Eng | Sub Eng antik_2008  7 / 0   7.63 GB   2020-03-14 19:22 
   Кімната бажань / The Room (2019) antik_2008  6 / 0   1.45 GB   2020-03-14 19:08 
   Кімната бажань / The Room (2019) 720p Ukr/Eng | Sub Eng 11FrYkT  9 / 0   3.62 GB   2020-03-14 13:28 
   Кімната бажань / The Room (2019) AVC Ukr/Eng | Sub Eng 11FrYkT  8 / 0   2.13 GB   2020-03-14 13:25 
Ваш часовий пояс: GMT + 2 Години

Нова тема   Відповісти