Ножі наголо / Knives Out (2019) 1080p H.265 Ukr/Eng | Sub Eng

Нові коментарі

Нова тема   Відповісти
Автор Повідомлення
Anonymous 







2020-03-18 19:18  
Ножі наголо / Knives Out (2019) 1080p H.265 Ukr/Eng | Sub Eng

Ножі наголо / Knives Out (2019) 1080p H.265 Ukr/Eng | Sub Eng


Жанр: детектив, драма, комедія, кримінальний
Країна: США
Кінокомпанія: Lionsgate, Media Rights Capital (MRC), T-Street See
Режисер: Раян Джонсон
Актори: Деніел Крейг, Ана де Армас, Кріс Еванс, Джеймі Лі Кертіс, Майкл Шеннон, Дон Джонсон, Тоні Коллетт, Лакіт Стенфілд, Крістофер Пламмер, Кетрін Ленгфорд

Сюжет:
Відомий автор кримінальних романів Харлан Тромбі святкує свій 85-й день народження. На свято в маєток письменника зібралася вся родина. Варто сказати, що це далеко не найприємніші особистості, кожен із яких ненавидить один одного. На наступний же день після цієї знаменної події Харлана знаходять мертвим у його особняку. Підозрювані, звичайно ж, є всі його рідні, а також його колишній персонал. Розслідувати цю справу взявся харизматичний і неймовірно допитливий детектив Бенуа Блан. Його чекає, напевно, найбільш заплутана справа в його кар'єрі, адже кожна людина в особняку могла вбити письменника. І всі вони такі неприємні, що краще би нікому не довіряти.

Тривалість: 02:10:13
Якість:

Відео:
кодек: H.265 (HEVC)
розмір кадру: 1920 x 1036
бітрейт: 15 277 кб/с
бітова глибина: 10 біт

Увага! Перед завантаженням переконайтесь, що ваш пристрій відтворення (та/або ПЗ) підтримує H.265 (HEVC)

Аудіо # 1:
мова: українська
переклад: професійний дубльований
кодек: AC-3 5.1
бітрейт: 384 кб/с

Аудіо # 2:
мова: англійська
переклад: оригінал
кодек: 5.1
бітрейт: 1510 кб/с

Субтитри # 1-2: (Full, SDH)
мова: англійська
тип: програмні (м'які)
формат: *.srt


Info
Код:
General
Unique ID                                : 166588583358897837517908496562536351609 (0x7D53CB4AB01239CDF071332EA8B88779)
Complete name                            : Knives Out (2019) 1080p H.265 [UKR_ENG] [Hurtom].
Format                                   :
Format version                           : Version 4
File size                                : 15.6 GiB
Duration                                 : 2 h 10 min
Overall bit rate                         : 17.2 Mb/s
Movie name                               : Ножі наголо / Knives Out (2019)
Encoded date                             : UTC 2020-09-01 07:39:59
Writing application                      : v20.0.0 ('I Am The Sun') 64-bit
Writing library                          : libebml v1.3.5 + v1.4.8
Cover                                    : Yes
Attachments                              : cover.jpg

Video
ID                                       : 1
Format                                   : HEVC
Format/Info                              : High Efficiency Video Coding
Format profile                           : Main [email protected]@High
Codec ID                                 : V_MPEGH/ISO/HEVC
Duration                                 : 2 h 10 min
Bit rate                                 : 15.3 Mb/s
Width                                    : 1 920 pixels
Height                                   : 1 036 pixels
Display aspect ratio                     : 1.85:1
Frame rate mode                          : Constant
Frame rate                               : 23.976 (24000/1001) FPS
Color space                              : YUV
Chroma subsampling                       : 4:2:0
Bit depth                                : 10 bits
Bits/(Pixel*Frame)                       : 0.320
Stream size                              : 13.9 GiB (89%)
Title                                    : Ножі наголо / Knives Out (2019)
Writing library                          : x265 3.2+5-354901970679:[Windows][clang 8.0.1][64 bit] 10bit
Encoding settings                        : cpuid=1049583 / frame-threads=5 / numa-pools=4 / wpp / no-pmode / no-pme / no-psnr / no-ssim / log-level=3 / input-csp=1 / input-res=1920x1036 / interlace=0 / total-frames=0 / level-idc=41 / high-tier=1 / uhd-bd=0 / ref=4 / allow-non-conformance / no-repeat-headers / annexb / no-aud / no-hrd / info / hash=0 / no-temporal-layers / open-gop / min-keyint=24 / keyint=240 / gop-lookahead=0 / bframes=14 / b-adapt=2 / b-pyramid / bframe-bias=0 / rc-lookahead=40 / lookahead-slices=6 / scenecut=40 / radl=0 / no-splice / no-intra-refresh / ctu=32 / min-cu-size=8 / rect / no-amp / max-tu-size=32 / tu-inter-depth=4 / tu-intra-depth=4 / limit-tu=1 / rdoq-level=1 / dynamic-rd=0.00 / no-ssim-rd / signhide / no-tskip / nr-intra=0 / nr-inter=0 / no-constrained-intra / no-strong-intra-smoothing / max-merge=5 / limit-refs=1 / no-limit-modes / me=3 / subme=7 / merange=57 / temporal-mvp / no-frame-dup / no-hme / weightp / no-weightb / no-analyze-src-pics / deblock=-3:-3 / no-sao / no-sao-non-deblock / rd=4 / selective-sao=0 / early-skip / no-rskip / no-fast-intra / no-tskip-fast / no-cu-lossless / b-intra / no-splitrd-skip / rdpenalty=0 / psy-rd=2.00 / psy-rdoq=1.00 / no-rd-refine / no-lossless / cbqpoffs=0 / crqpoffs=0 / rc=crf / crf=21.0 / qcomp=0.60 / qpstep=4 / stats-write=0 / stats-read=0 / vbv-maxrate=50000 / vbv-bufsize=50000 / vbv-init=0.9 / crf-max=0.0 / crf-min=0.0 / ipratio=1.40 / pbratio=1.30 / aq-mode=3 / aq-strength=1.00 / no-cutree / zone-count=0 / no-strict-cbr / qg-size=32 / no-rc-grain / qpmax=69 / qpmin=0 / no-const-vbv / sar=1 / overscan=0 / videoformat=5 / range=0 / colorprim=2 / transfer=2 / colormatrix=2 / chromaloc=0 / display-window=0 / cll=0,0 / min-luma=0 / max-luma=1023 / log2-max-poc-lsb=8 / vui-timing-info / vui-hrd-info / slices=1 / no-opt-qp-pps / no-opt-ref-list-length-pps / no-multi-pass-opt-rps / scenecut-bias=0.05 / no-opt-cu-delta-qp / no-aq-motion / no-hdr / no-hdr-opt / no-dhdr10-opt / no-idr-recovery-sei / analysis-reuse-level=5 / scale-factor=0 / refine-intra=0 / refine-inter=0 / refine-mv=1 / refine-ctu-distortion=0 / no-limit-sao / ctu-info=0 / no-lowpass-dct / refine-analysis-type=0 / copy-pic=1 / max-ausize-factor=1.0 / no-dynamic-refine / no-single-sei / no-hevc-aq / no-svt / no-field / qp-adaptation-range=1.00
Language                                 : English
Default                                  : Yes
Forced                                   : No
Color range                              : Limited

Audio #1
ID                                       : 2
Format                                   : AC-3
Format/Info                              : Audio Coding 3
Commercial name                          : Dolby Digital
Codec ID                                 : A_AC3
Duration                                 : 2 h 10 min
Bit rate mode                            : Constant
Bit rate                                 : 384 kb/s
Channel(s)                               : 6 channels
Channel layout                           : L R C LFE Ls Rs
Sampling rate                            : 48.0 kHz
Frame rate                               : 31.250 FPS (1536 SPF)
Compression mode                         : Lossy
Stream size                              : 358 MiB (2%)
Title                                    : / 5.1 Ch / 384 kbps / DUB / iTunes
Language                                 : Ukrainian
Service kind                             : Complete Main
Default                                  : Yes
Forced                                   : Yes

Audio #2
ID                                       : 3
Format                                   :
Format/Info                              : Digital Theater Systems
Codec ID                                 : A_DTS
Duration                                 : 2 h 10 min
Bit rate mode                            : Constant
Bit rate                                 : 1 509 kb/s
Channel(s)                               : 6 channels
Channel layout                           : C L R Ls Rs LFE
Sampling rate                            : 48.0 kHz
Frame rate                               : 93.750 FPS (512 SPF)
Bit depth                                : 24 bits
Compression mode                         : Lossy
Stream size                              : 1.37 GiB (9%)
Title                                    : / 5.1 Ch / 1509 kbps / Original
Language                                 : English
Default                                  : No
Forced                                   : No

Text #1
ID                                       : 4
Format                                   : UTF-8
Codec ID                                 : S_TEXT/UTF8
Codec ID/Info                            : UTF-8 Plain Text
Duration                                 : 2 h 2 min
Bit rate                                 : 85 b/s
Count of elements                        : 2616
Stream size                              : 76.2 KiB (0%)
Title                                    : Full
Language                                 : English
Default                                  : No
Forced                                   : No

Text #2
ID                                       : 5
Format                                   : UTF-8
Codec ID                                 : S_TEXT/UTF8
Codec ID/Info                            : UTF-8 Plain Text
Duration                                 : 2 h 2 min
Bit rate                                 : 89 b/s
Count of elements                        : 2795
Stream size                              : 79.8 KiB (0%)
Title                                    : SDH
Language                                 : English
Default                                  : No
Forced                                   : No

Menu
00:00:00.000                             : en:Chapter 01
00:05:28.036                             : en:Chapter 02
00:21:23.115                             : en:Chapter 03
00:31:48.698                             : en:Chapter 04
00:44:30.960                             : en:Chapter 05
00:49:52.364                             : en:Chapter 06
00:54:53.582                             : en:Chapter 07
00:58:39.766                             : en:Chapter 08
01:07:09.776                             : en:Chapter 09
01:12:43.943                             : en:Chapter 10
01:22:30.279                             : en:Chapter 11
01:28:49.741                             : en:Chapter 12
01:34:44.429                             : en:Chapter 13
01:40:47.458                             : en:Chapter 14
01:43:43.634                             : en:Chapter 15
02:01:45.131                             : en:Chapter 16
Світлини




Джерело: &
Особиста оцінка: 10 - без зайвих вагань рекомендую всім!


 Трекер:    Зареєстрований   

Завантажити / скачати фільм українською



відео для новачків



 Зареєстрований:   2020-09-01 11:05
 Розмір:   15.62 GB 
 Оцінка фільму:   9.9/10 (Голосів: 19)
   
Інші релізи
   Ножі наголо / Knives Out (2019) Remux 1080p Ukr/Eng | Sub Eng staf777  6 / 0   25.33 GB   2020-09-02 10:35 
   Ножі наголо / Knives Out (2019) Ukr/Eng antik_2008  17 / 0   2.18 GB   2020-08-30 21:01 
   Ножі наголо / Knives Out (2019) 1080p Ukr/Eng | Sub Eng antik_2008  13 / 0   14.48 GB   2020-08-30 18:40 
   Ножі наголо / Knives Out (2019) UHD Remux 4K 2160p Ukr/Eng | Sub Eng antik_2008  6 / 0   53.64 GB   2020-08-30 18:14 
   Ножі наголо / Knives Out (2019) 720p Ukr/Eng | Sub Eng antik_2008  10 / 1   7.74 GB   2020-08-30 17:40 
   Ножі наголо / Knives Out (2019) AVC Ukr/Eng | Sub Eng 11FrYkT  19 / 0   2.96 GB   2020-08-29 21:54 
   Ножі наголо / Knives Out (2019) 4K UHD SDR 2160p Ukr/Eng | Sub Eng Documentalist  8 / 0   44.42 GB   2020-02-10 21:48 
Anonymous 







2020-09-01 11:05  
Якісніша укр. доріжка.
Ваш часовий пояс: GMT + 2 Години

Нова тема   Відповісти