Стволи Акімбо / Guns Akimbo (2019) Ukr/Eng

Нові коментарі

Нова тема   Відповісти
Автор Повідомлення
BurtonJey 
Свій


З нами з: 16.11.18
Востаннє: 07.07.20
Повідомлень: 79

2020-03-18 18:54  
Стволи Акімбо / Guns Akimbo (2019) Ukr/Eng



Жанр: бойовик, комедія
Країна: Велика Британія, Німеччина, Нова Зеландія



Кінокомпанія: Altitude Film Entertainment, Four Knights Film, Hyperion Media Group, Ingenious Media, Maze Pictures, Occupant Entertainment, Pump Metal Films, The Electric Shadow Company, Particular Crowd
Режисер: Джейсон Лі Говден
Актори: Денієл Редкліфф, Самара Вівінг, Ріс Дарбі, Нед Деннегі, Наташа Лю Бордіззо та інші

Сюжет:
Офісний планктон Майлз Гарріз проти своєї волі стає учасником підпільних гладіаторських змагань на смерть "Скізм". Маючи при собі лише пістолети, якими він не вміє користуватися, Майлзу необхідно вижити, в той час як за ним полює чемпіонка "Скізму" - Нікс.


18+



Тривалість: 01:37:48
Якість:
Відео:
кодек:
розмір кадру: 720 х 304
бітрейт: 2400 кб/с
контейнер: фактично , хоча розширення файлу помилково змінено на avi

Аудіо # 1:
мова: українська
переклад: одноголосий закадровий | Burton Jey
кодек: 5.1
бітрейт: 448 кб/с
застереження: Увага! Озвучення містить ненормативну лексику!

Аудіо # 2:
мова: англійська
переклад: оригінал
кодек: 5.1
бітрейт: 384 кб/с
контейнер:

Субтитри: (окремим файлом, на написи)
мова: українська
тип: програмні (м'які)
формат: *.srt
Скріншоти


Info
General
Unique ID : 251727179684265130060367674184524466345 (0xBD60E42D59F47E729C58EBE79B5988A9)
Format :
Format version : Version 4
File size : 2.21 GiB
Duration : 1 h 37 min
Overall bit rate : 3 234 kb/s
Encoded date : UTC 2020-03-18 14:56:40
Writing application : v9.2.0 ('Photograph') 32bit
Writing library : libebml v1.3.3 + v1.4.4
FileExtension_Invalid : mk3d mka mks

Video
ID : 1
Format : MPEG-4 Visual
Format profile : Advanced [email protected]
Format settings : BVOP2
Format settings, BVOP : 2
Format settings, QPel : No
Format settings, GMC : No warppoints
Format settings, Matrix : Default (H.263)
Codec ID : V_MS/VFW/FOURCC /
Codec ID/Hint :
Duration : 1 h 37 min
Bit rate : 2 400 kb/s
Width : 720 pixels
Height : 304 pixels
Display aspect ratio : 2.40:1
Original display aspect ratio : 2.40:1
Frame rate mode : Constant
Frame rate : 23.976 (24000/1001) FPS
Color space : YUV
Chroma subsampling : 4:2:0
Bit depth : 8 bits
Scan type : Progressive
Compression mode : Lossy
Bits/(Pixel*Frame) : 0.457
Stream size : 1.64 GiB (74%)
Writing library : 67
Default : Yes
Forced : No

Audio #1
ID : 2
Format : AC-3
Format/Info : Audio Coding 3
Commercial name : Dolby Digital
Codec ID : A_AC3
Duration : 1 h 37 min
Bit rate mode : Constant
Bit rate : 448 kb/s
Channel(s) : 6 channels
Channel layout : L R C LFE Ls Rs
Sampling rate : 48.0 kHz
Frame rate : 31.250 FPS (1536 SPF)
Compression mode : Lossy
Stream size : 313 MiB (14%)
Language : Ukrainian
Service kind : Complete Main
Default : Yes
Forced : No

Audio #2
ID : 3
Format : AC-3
Format/Info : Audio Coding 3
Commercial name : Dolby Digital
Codec ID : A_AC3
Duration : 1 h 37 min
Bit rate mode : Constant
Bit rate : 384 kb/s
Channel(s) : 6 channels
Channel layout : L R C LFE Ls Rs
Sampling rate : 48.0 kHz
Frame rate : 31.250 FPS (1536 SPF)
Compression mode : Lossy
Stream size : 269 MiB (12%)
Language : English
Service kind : Complete Main
Default : No
Forced : No
Особиста оцінка: 8

Допомогти копійчиною, хоч і не обов'язково, але можна тут

Особлива подяка mrgalser за постер


Авторський реліз (завантажувати можна без реєстрації)
 Трекер:    Зареєстрований   

Завантажити / скачати фільм українською



відео для новачків



 Зареєстрований:   2020-03-18 18:54
 Розмір:   2.21 GB 
 Оцінка фільму:   8.1/10 (Голосів: 70)
   
Інші релізи
BurtonJey 
Свій


З нами з: 16.11.18
Востаннє: 07.07.20
Повідомлень: 79

2020-03-18 19:04  
Сьогодні - завтра додам версію 1080р
jaguar_arx 
Свій


З нами з: 27.08.12
Востаннє: 06.07.20
Повідомлень: 93

2020-03-18 19:33  
Дивився в кінотеатрі. Ржав як кінь місяцями. Дуже веселий трешачок. Рекомендую, особливо в компанії під пивко.
don pedro 
Попереджень: 1
Попереджень: 1 


З нами з: 29.06.11
Востаннє: 08.07.20
Повідомлень: 17164

2020-03-18 19:38  
До речі, "стволи Акімбо" означає стрільбу з обох рук, чим головний герой безперестанку і змушений займатись.
Prybulets 
Свій


З нами з: 10.09.11
Востаннє: 07.07.20
Повідомлень: 72

2020-03-18 22:48  
Веселенький трешачок. Глянути можна разок.
wereman 
Свій


З нами з: 08.01.13
Востаннє: 07.07.20
Повідомлень: 67

2020-03-19 16:25  
Шановні, а рейтинг 18+, встановлений через жорстокість чи відверті сцени?
igor911 
Модератор відео


З нами з: 18.01.08
Востаннє: 07.07.20
Повідомлень: 14862

2020-03-19 16:30  
wereman написано:
а рейтинг 18+, встановлений через жорстокість чи відверті сцени?

завжди можна глянути самому на імдб, клацнувши по кнопці з рейтингом в описі --> more --> Parents Guide: https://www.imdb.com/title/tt6902676/parentalguide?ref_=tt_ql_stry_5

wereman 
Свій


З нами з: 08.01.13
Востаннє: 07.07.20
Повідомлень: 67

2020-03-19 16:39  
igor911
дякую.

viktorian1977 
Свій


З нами з: 23.12.14
Востаннє: 06.07.20
Повідомлень: 90

2020-03-19 16:54  
А Гарік Потер опускається все нижче і нижче...
СергійС 
Новенький


З нами з: 17.05.12
Востаннє: 06.07.20
Повідомлень: 15

2020-03-19 17:00  
Не витрачайте час. Пожалкуєте.
BurtonJey 
Свій


З нами з: 16.11.18
Востаннє: 07.07.20
Повідомлень: 79

2020-03-19 17:33  
wereman
Жорстокість, нецензурна лексика, та вживання наркотиків.

omnia88 
Новенький


З нами з: 16.10.16
Востаннє: 07.07.20
Повідомлень: 8

2020-03-19 19:57  
нормальний фільм) дивитися можна))
BodnarukR 
Частий відвідувач


З нами з: 06.02.13
Востаннє: 03.07.20
Повідомлень: 36

2020-03-19 23:57  
Особливої художньої цінності не очікуйте.
don pedro 
Попереджень: 1
Попереджень: 1 


З нами з: 29.06.11
Востаннє: 08.07.20
Повідомлень: 17164

2020-03-20 03:08  
Ще одна блискуча і цілком божевільна роль Редкліффа, який давно, на щастя, вийшов з образу "хлопчика, що вижив". Фільм присвячується усім задротам та мережевим витязям (і нам з тобою теж, мій любий читачу), з яких і списано образ головного героя і омріяне багатьма раптове переродження у крутого мокрушника. Класні відсилання до "Термінатора", "Рембо" і взагалі, старих бойовиків. Один з тих небагатьох фільмів, які й справді мають право називатись водночас і бойовиком, і комедією.
Десяточка.
Дякую за озвучення. Чекаю ще професійного дубляжу.

crab1983 
Новенький


З нами з: 23.10.15
Востаннє: 29.05.20
Повідомлень: 20

2020-03-20 09:19  
Фігня повна. Як і кожен фільм цього "актора".
Zerta 
Частий відвідувач


З нами з: 06.02.17
Востаннє: 04.07.20
Повідомлень: 27

2020-03-20 16:25  
Фільм сподобався.Особиста оцінка 8 з 10.
Mix27 
Новенький


З нами з: 01.12.18
Востаннє: 07.07.20
Повідомлень: 13

2020-03-21 20:42  
Переклад бімба! 10/10
don pedro 
Попереджень: 1
Попереджень: 1 


З нами з: 29.06.11
Востаннє: 08.07.20
Повідомлень: 17164

2020-03-21 20:44  
Переклад може бути. Ще б русизми прибрати.
djud 
Новенький


З нами з: 15.11.11
Востаннє: 07.07.20
Повідомлень: 1

2020-03-21 21:59  
Бездарний жах
shanovniy 
Новенький


З нами з: 04.08.09
Востаннє: 04.07.20
Повідомлень: 14

2020-03-22 20:27  
Яке кодування субтитрів?
VyacheslavM 
Новенький


З нами з: 13.01.20
Востаннє: 07.07.20
Повідомлень: 3

2020-03-22 23:41  
Тупеньке кіно. Так переглянути на 1 разок і то якщо немає чим зайнятись
alonzo 
VIP


З нами з: 30.08.15
Востаннє: 07.07.20
Повідомлень: 345

2020-03-24 22:41  
viktorian1977 написано:
А Гарік Потер опускається все нижче і нижче...


підтримую!
СергійС написано:
Не витрачайте час. Пожалкуєте.


підтримую!
djud написано:
Бездарний жах

підтримую!, і від себе добавлю : - лайно повне ! Редкліф не вміє вибирати сценарії і жує усе що йому кидають до рота, згадайте до чого привело це Ніколоса Кейджа - а такий класний був актор і скільки крутих фільмів у його списку особливо Поганий лейтенант (2009) і Збройовий барон 2005 чого вартують !

Ваш часовий пояс: GMT + 2 Години

Нова тема   Відповісти