Аладдін. Трилогія / Aladdin. Trilogy (1992-1996) 1080p H.265 Ukr/Eng | Sub Eng

Нові коментарі

Нова тема   Відповісти
Автор Повідомлення
Anonymous 







2020-03-18 13:54  
Аладдін. Трилогія / Aladdin. Trilogy (1992-1996) 1080p H.265 Ukr/Eng | Sub Eng

Аладдін. Трилогія / Aladdin. Trilogy (1992-1996) 1080p H.265 Ukr/Eng | Sub Eng

1. 2. 3.

1. Аладдін / Aladdin (1992) 1080p H.265 Ukr/Eng | Sub Ukr/Eng
Аладдін / Aladdin (1992) 1080p H.265 Ukr/Eng | Sub Ukr/Eng

Аладдін. Трилогія / Aladdin. Trilogy (1992-1996) 1080p H.265 Ukr/Eng | Sub Eng


Жанр: анімаційний, сімейний, пригодницький
Країна: США
Кінокомпанія: Walt Disney Productions, Walt Disney Feature Animation
Режисер: Рон Клементс, Джон Маскер
Ролі озвучують: Скотт Веінгер, Робін Вільямс, Лінда Ларкін, Джонатан Фрімен, Френк Велкер, Гілберт Готфрід, Дуглас Сейл

Сюжет:
У славетному місті Аграба живе Аладдін, веселий злодюжка із золотим серцем. Живе і не знає, що незабаром його чекає найбільша пригода в житті. Адже тільки з його допомогою чорний маг Джафар може заволодіти неймовірним скарбом - лампою, в якій запроторений виконуючий бажання могутній Джин. І тільки хитромудрість, кмітливість та доброта Аладдіна і його друзів - мавпочки Абу, принцеси Жасмін і самого Джина здатні перешкодити Джафару заволодіти лампою і захопити владу над світом ...

Тривалість: 01:30:39
Якість:

Відео:
кодек: H.265 (HEVC)
розмір кадру: 1920 x 1040
бітрейт: 5 402 кб/с
бітова глибина: 10 біт

Увага! Перед завантаженням переконайтесь, що ваш пристрій відтворення (та/або ПЗ) підтримує H.265 (HEVC)

Аудіо # 1:
мова: українська
переклад: професійний дубльований
кодек: AC-3 2.0
бітрейт: 320 кб/с

Аудіо # 2:
мова: англійська
переклад: оригінал
кодек: AC-3 5.1
бітрейт: 640 кб/с

Субтитри # 1-2: (Forced, Full)
мова: українська
тип: програмні (м'які)
формат: *.srt

Субтитри # 3-5: (Forced, Full, SDH)
мова: англійська
тип: програмні (м'які)
формат: *.srt


Info
Код:
General
Unique ID                                : 112492896499057569036305954469118982565 (0x54A158029C62C8495782BFC065F7B9A5)
Complete name                            : 1. Aladdin (1992) 1080p H.265 [UKR_ENG] [Hurtom].
Format                                   :
Format version                           : Version 4
File size                                : 4.03 GiB
Duration                                 : 1 h 30 min
Overall bit rate                         : 6 366 kb/s
Movie name                               : Aladdin (1992)
Encoded date                             : UTC 2019-02-15 09:39:01
Writing application                      : v20.0.0 ('I Am The Sun') 64-bit
Writing library                          : libebml v1.3.5 + v1.4.8
Cover                                    : Yes
Attachments                              : Cover.jpg

Video
ID                                       : 1
Format                                   : HEVC
Format/Info                              : High Efficiency Video Coding
Format profile                           : Main [email protected]@High
Codec ID                                 : V_MPEGH/ISO/HEVC
Duration                                 : 1 h 30 min
Bit rate                                 : 5 402 kb/s
Width                                    : 1 920 pixels
Height                                   : 1 040 pixels
Display aspect ratio                     : 1.85:1
Frame rate mode                          : Constant
Frame rate                               : 23.976 (24000/1001) FPS
Color space                              : YUV
Chroma subsampling                       : 4:2:0
Bit depth                                : 10 bits
Bits/(Pixel*Frame)                       : 0.113
Stream size                              : 3.42 GiB (85%)
Title                                    : Aladdin (1992)
Writing library                          : x265 2.8+74-fd517ae68f93:[Windows][MSVC 1915][64 bit] 10bit
Encoding settings                        : cpuid=1111039 / frame-threads=3 / numa-pools=12 / wpp / no-pmode / no-pme / no-psnr / no-ssim / log-level=2 / input-csp=1 / input-res=1920x1040 / interlace=0 / total-frames=64738 / level-idc=41 / high-tier=1 / uhd-bd=0 / ref=5 / no-allow-non-conformance / no-repeat-headers / annexb / no-aud / no-hrd / info / hash=0 / no-temporal-layers / open-gop / min-keyint=23 / keyint=240 / gop-lookahead=0 / bframes=12 / b-adapt=2 / b-pyramid / bframe-bias=0 / rc-lookahead=60 / lookahead-slices=4 / scenecut=40 / radl=0 / no-intra-refresh / ctu=32 / min-cu-size=8 / rect / amp / max-tu-size=32 / tu-inter-depth=4 / tu-intra-depth=4 / limit-tu=1 / rdoq-level=2 / dynamic-rd=0.00 / no-ssim-rd / signhide / no-tskip / nr-intra=0 / nr-inter=0 / no-constrained-intra / no-strong-intra-smoothing / max-merge=4 / limit-refs=2 / limit-modes / me=3 / subme=7 / merange=57 / temporal-mvp / weightp / weightb / no-analyze-src-pics / deblock=-3:-3 / no-sao / no-sao-non-deblock / rd=6 / no-early-skip / no-rskip / no-fast-intra / no-tskip-fast / no-cu-lossless / no-b-intra / no-splitrd-skip / rdpenalty=0 / psy-rd=2.00 / psy-rdoq=1.00 / no-rd-refine / no-lossless / cbqpoffs=0 / crqpoffs=0 / rc=crf / crf=20.0 / qcomp=0.60 / qpstep=4 / stats-write=0 / stats-read=0 / vbv-maxrate=50000 / vbv-bufsize=50000 / vbv-init=0.9 / crf-max=0.0 / crf-min=0.0 / ipratio=1.40 / pbratio=1.30 / aq-mode=1 / aq-strength=0.90 / no-cutree / zone-count=0 / no-strict-cbr / qg-size=32 / no-rc-grain / qpmax=69 / qpmin=0 / no-const-vbv / sar=1 / overscan=0 / videoformat=5 / range=0 / colorprim=2 / transfer=2 / colormatrix=2 / chromaloc=0 / display-window=0 / max-cll=0,0 / min-luma=0 / max-luma=1023 / log2-max-poc-lsb=8 / vui-timing-info / vui-hrd-info / slices=1 / no-opt-qp-pps / no-opt-ref-list-length-pps / no-multi-pass-opt-rps / scenecut-bias=0.05 / no-opt-cu-delta-qp / no-aq-motion / no-hdr / no-hdr-opt / no-dhdr10-opt / no-idr-recovery-sei / analysis-reuse-level=5 / scale-factor=0 / refine-intra=0 / refine-inter=0 / refine-mv=0 / no-limit-sao / ctu-info=0 / no-lowpass-dct / refine-mv-type=0 / copy-pic=1 / max-ausize-factor=1.0 / no-dynamic-refine / no-single-sei
Default                                  : Yes
Forced                                   : No

Audio #1
ID                                       : 2
Format                                   : AC-3
Format/Info                              : Audio Coding 3
Commercial name                          : Dolby Digital
Codec ID                                 : A_AC3
Duration                                 : 1 h 30 min
Bit rate mode                            : Constant
Bit rate                                 : 320 kb/s
Channel(s)                               : 2 channels
Channel layout                           : L R
Sampling rate                            : 48.0 kHz
Frame rate                               : 31.250 FPS (1536 SPF)
Compression mode                         : Lossy
Stream size                              : 208 MiB (5%)
Title                                    : ПД - Blu-Ray
Language                                 : Ukrainian
Service kind                             : Complete Main
Default                                  : Yes
Forced                                   : Yes

Audio #2
ID                                       : 3
Format                                   : AC-3
Format/Info                              : Audio Coding 3
Commercial name                          : Dolby Digital
Codec ID                                 : A_AC3
Duration                                 : 1 h 30 min
Bit rate mode                            : Constant
Bit rate                                 : 640 kb/s
Channel(s)                               : 6 channels
Channel layout                           : L R C LFE Ls Rs
Sampling rate                            : 48.0 kHz
Frame rate                               : 31.250 FPS (1536 SPF)
Compression mode                         : Lossy
Stream size                              : 415 MiB (10%)
Title                                    : Original
Language                                 : English
Service kind                             : Complete Main
Default                                  : No
Forced                                   : No

Text #1
ID                                       : 4
Format                                   : UTF-8
Codec ID                                 : S_TEXT/UTF8
Codec ID/Info                            : UTF-8 Plain Text
Duration                                 : 1 h 24 min
Bit rate                                 : 13 b/s
Count of elements                        : 203
Stream size                              : 8.50 KiB (0%)
Title                                    : Forced
Language                                 : Ukrainian
Default                                  : Yes
Forced                                   : Yes

Text #2
ID                                       : 5
Format                                   : UTF-8
Codec ID                                 : S_TEXT/UTF8
Codec ID/Info                            : UTF-8 Plain Text
Duration                                 : 1 h 29 min
Bit rate                                 : 76 b/s
Count of elements                        : 1302
Stream size                              : 50.6 KiB (0%)
Title                                    : Full
Language                                 : Ukrainian
Default                                  : No
Forced                                   : No

Text #3
ID                                       : 6
Format                                   : UTF-8
Codec ID                                 : S_TEXT/UTF8
Codec ID/Info                            : UTF-8 Plain Text
Duration                                 : 1 h 24 min
Bit rate                                 : 13 b/s
Count of elements                        : 203
Stream size                              : 8.50 KiB (0%)
Title                                    : Forced
Language                                 : English
Default                                  : No
Forced                                   : No

Text #4
ID                                       : 7
Format                                   : UTF-8
Codec ID                                 : S_TEXT/UTF8
Codec ID/Info                            : UTF-8 Plain Text
Duration                                 : 1 h 29 min
Bit rate                                 : 63 b/s
Count of elements                        : 1296
Stream size                              : 41.6 KiB (0%)
Title                                    : Full
Language                                 : English
Default                                  : No
Forced                                   : No

Text #5
ID                                       : 8
Format                                   : UTF-8
Codec ID                                 : S_TEXT/UTF8
Codec ID/Info                            : UTF-8 Plain Text
Duration                                 : 1 h 29 min
Bit rate                                 : 69 b/s
Count of elements                        : 1470
Stream size                              : 45.7 KiB (0%)
Title                                    : SDH
Language                                 : English
Default                                  : No
Forced                                   : No

Menu
00:00:00.000                             : :Chapter 01
00:03:06.060                             : :Chapter 02
00:06:47.323                             : :Chapter 03
00:12:37.423                             : :Chapter 04
00:16:34.618                             : :Chapter 05
00:19:39.052                             : :Chapter 06
00:23:50.470                             : :Chapter 07
00:27:39.324                             : :Chapter 08
00:31:21.629                             : :Chapter 09
00:34:55.676                             : :Chapter 10
00:37:20.363                             : :Chapter 11
00:41:13.387                             : :Chapter 12
00:43:32.860                             : :Chapter 13
00:47:17.042                             : :Chapter 14
00:48:39.958                             : :Chapter 15
00:55:20.025                             : :Chapter 16
00:57:37.745                             : :Chapter 17
01:03:04.906                             : :Chapter 18
01:07:24.915                             : :Chapter 19
01:10:07.411                             : :Chapter 20
01:10:41.654                             : :Chapter 21
01:15:31.610                             : :Chapter 22
01:18:57.983                             : :Chapter 23
01:21:41.438                             : :Chapter 24
01:25:43.555                             : :Chapter 25
01:30:39.600                             : :Chapter 26
Світлини



2. Аладдін 2: Повернення Джафара / Aladdin 2: Return of Jafar (1994) 1080p H.265 2xUkr/Eng | Sub Ukr/Eng
Аладдін 2: Повернення Джафара / Aladdin 2: Return of Jafar (1994) 1080p H.265 2xUkr/Eng | Sub Ukr/Eng

Аладдін. Трилогія / Aladdin. Trilogy (1992-1996) 1080p H.265 Ukr/Eng | Sub Eng


Жанр: анімація, казка, дитячий, сімейний
Країна: США
Кінокомпанія: Walt Disney Home Video
Режисер: Тобі Шелтон, Тед Стоунс, Алан Заслов / Toby Shelton, Tad Stones, Alan Zaslove
Актори: Джейсон Олександр, Джонатан Фріман, Джеф Беннет, Гітберт Готфрід, Бред Кейн, Ліз Калавей

Сюжет:
Продовження чарівної казки про Аладдіна. Друга частина захоплюючої трилогії про хороброго вуличного злодюжку починається там, де закінчився перший мультфільм. Вже здавалося б, що чорному чарівникові й новоявленому джину Джафарові судилося навіки залишитися полоненим чарівної лампи, - але йому вдається звільнитися! І на думці у підступного лиходія лише одне: він жадає помсти Аладдіну.

А тим часом, в Агробі життя триває. Безжурний пустун Джин повернувся з кругосвітньої подорожі, і розповідає друзям неймовірні історії про свої пригоди. Але щастя триватиме недовго. Нашим героям знову доведеться зустрітися з Джафаром, і їм стане в нагоді вся їх магія і відвага.

Чимало перешкод постане на шляху наших старих знайомих Аладдіна, принцеси Джасмін, Абу, Килимка і (звичайно ж!) Джина. Тут і битви із злодіями на літаючих конях, і охоплені полум'ям міжгір'я, що клекочуть з лавою. Але відступати не можна - адже на кону доля всього королівства!

Тривалість: 01:09:05
Якість:

Відео:
кодек: H.265 (HEVC)
розмір кадру: 1920 x 1080
бітрейт: 8 329 кб/с
бітова глибина: 10 біт

Увага! Перед завантаженням переконайтесь, що ваш пристрій відтворення (та/або ПЗ) підтримує H.265 (HEVC)

Аудіо # 1:
мова: українська
переклад: багатоголосий закадровий | UFDUB.com
кодек: AC-3 2.0
бітрейт: 192 кб/с

Аудіо # 2:
мова: українська
переклад: одноголосий закадровий | Slava Rudik
кодек: AC-3 2.0
бітрейт: 448 кб/с

Аудіо # 3:
мова: англійська
переклад: оригінал
кодек: 5.1
бітрейт: 1510 кб/с

Субтитри # 1: (Full by Lepich)
мова: українська
тип: програмні (м'які)
формат: *.srt

Субтитри # 2: (Full)
мова: англійська
тип: програмні (м'які)
формат: *.srt


Info
Код:
General
Unique ID                                : 317116173475416459664363322682301348139 (0xEE925A7AB04B2C9485B02D9BA5A9F92B)
Complete name                            : 2. Aladdin 2. Return of Jafar (1994) 1080p H.265 [2xUKR_ENG] [Hurtom].
Format                                   :
Format version                           : Version 4
File size                                : 5.06 GiB
Duration                                 : 1 h 9 min
Overall bit rate                         : 10.5 Mb/s
Movie name                               : Аладдін 2: Повернення Джафара / Aladdin 2: Return of Jafar (1994)
Encoded date                             : UTC 2020-04-27 20:10:38
Writing application                      : v20.0.0 ('I Am The Sun') 64-bit
Writing library                          : libebml v1.3.5 + v1.4.8
Cover                                    : Yes
Attachments                              : Cover.png

Video
ID                                       : 1
Format                                   : HEVC
Format/Info                              : High Efficiency Video Coding
Format profile                           : Main [email protected]@High
Codec ID                                 : V_MPEGH/ISO/HEVC
Duration                                 : 1 h 9 min
Bit rate                                 : 8 328 kb/s
Width                                    : 1 920 pixels
Height                                   : 1 080 pixels
Display aspect ratio                     : 16:9
Frame rate mode                          : Constant
Frame rate                               : 23.976 (23976/1000) FPS
Original frame rate                      : 23.976 (24000/1001) FPS
Color space                              : YUV
Chroma subsampling                       : 4:2:0
Bit depth                                : 10 bits
Bits/(Pixel*Frame)                       : 0.168
Stream size                              : 4.02 GiB (79%)
Title                                    : Аладдін 2: Повернення Джафара / Aladdin 2: Return of Jafar (1994)
Writing library                          : x265 3.2.1+1-b5c86a64bbbe:[Windows][MSVC 1923][64 bit] 10bit
Encoding settings                        : cpuid=1111039 / frame-threads=3 / numa-pools=12 / wpp / no-pmode / no-pme / no-psnr / no-ssim / log-level=2 / input-csp=1 / input-res=1920x1080 / interlace=0 / total-frames=94241 / level-idc=41 / high-tier=1 / uhd-bd=0 / ref=5 / no-allow-non-conformance / no-repeat-headers / annexb / no-aud / no-hrd / info / hash=0 / no-temporal-layers / open-gop / min-keyint=23 / keyint=240 / gop-lookahead=0 / bframes=16 / b-adapt=2 / b-pyramid / bframe-bias=0 / rc-lookahead=60 / lookahead-slices=4 / scenecut=40 / radl=0 / no-splice / no-intra-refresh / ctu=32 / min-cu-size=8 / rect / amp / max-tu-size=32 / tu-inter-depth=4 / tu-intra-depth=4 / limit-tu=1 / rdoq-level=2 / dynamic-rd=0.00 / no-ssim-rd / signhide / no-tskip / nr-intra=0 / nr-inter=0 / no-constrained-intra / no-strong-intra-smoothing / max-merge=4 / limit-refs=2 / limit-modes / me=3 / subme=7 / merange=57 / temporal-mvp / no-hme / weightp / weightb / no-analyze-src-pics / deblock=-3:-3 / no-sao / no-sao-non-deblock / rd=6 / selective-sao=0 / no-early-skip / no-rskip / no-fast-intra / no-tskip-fast / no-cu-lossless / no-b-intra / no-splitrd-skip / rdpenalty=0 / psy-rd=2.00 / psy-rdoq=1.00 / no-rd-refine / no-lossless / cbqpoffs=0 / crqpoffs=0 / rc=crf / crf=20.0 / qcomp=0.65 / qpstep=4 / stats-write=0 / stats-read=0 / vbv-maxrate=50000 / vbv-bufsize=50000 / vbv-init=0.9 / crf-max=0.0 / crf-min=0.0 / ipratio=1.40 / pbratio=1.30 / aq-mode=1 / aq-strength=1.00 / no-cutree / zone-count=0 / no-strict-cbr / qg-size=32 / no-rc-grain / qpmax=69 / qpmin=0 / no-const-vbv / sar=1 / overscan=0 / videoformat=5 / range=0 / colorprim=1 / transfer=1 / colormatrix=1 / chromaloc=0 / display-window=0 / cll=0,0 / min-luma=0 / max-luma=1023 / log2-max-poc-lsb=8 / vui-timing-info / vui-hrd-info / slices=1 / no-opt-qp-pps / no-opt-ref-list-length-pps / no-multi-pass-opt-rps / scenecut-bias=0.05 / no-opt-cu-delta-qp / no-aq-motion / no-hdr / no-hdr-opt / no-dhdr10-opt / no-idr-recovery-sei / analysis-reuse-level=5 / scale-factor=0 / refine-intra=0 / refine-inter=0 / refine-mv=1 / refine-ctu-distortion=0 / no-limit-sao / ctu-info=0 / no-lowpass-dct / refine-analysis-type=0 / copy-pic=1 / max-ausize-factor=1.0 / no-dynamic-refine / no-single-sei / no-hevc-aq / no-svt / no-field / qp-adaptation-range=1.00
Default                                  : Yes
Forced                                   : No
Color range                              : Limited
Color primaries                          : BT.709
Transfer characteristics                 : BT.709
Matrix coefficients                      : BT.709

Audio #1
ID                                       : 2
Format                                   : AC-3
Format/Info                              : Audio Coding 3
Commercial name                          : Dolby Digital
Codec ID                                 : A_AC3
Duration                                 : 1 h 9 min
Bit rate mode                            : Constant
Bit rate                                 : 192 kb/s
Channel(s)                               : 2 channels
Channel layout                           : L R
Sampling rate                            : 48.0 kHz
Frame rate                               : 31.250 FPS (1536 SPF)
Compression mode                         : Lossy
Stream size                              : 95.1 MiB (2%)
Title                                    : / 2.0 Ch / 192 kbps / БЗ / UFDUB.com
Language                                 : Ukrainian
Service kind                             : Complete Main
Default                                  : Yes
Forced                                   : Yes

Audio #2
ID                                       : 3
Format                                   : AC-3
Format/Info                              : Audio Coding 3
Commercial name                          : Dolby Digital
Codec ID                                 : A_AC3
Duration                                 : 1 h 9 min
Bit rate mode                            : Constant
Bit rate                                 : 448 kb/s
Channel(s)                               : 2 channels
Channel layout                           : L R
Sampling rate                            : 48.0 kHz
Frame rate                               : 31.250 FPS (1536 SPF)
Compression mode                         : Lossy
Stream size                              : 222 MiB (4%)
Title                                    : / 2.0 Ch / 448 kbps / ОЗ / By Slava Rudik
Language                                 : Ukrainian
Service kind                             : Complete Main
Default                                  : No
Forced                                   : No

Audio #3
ID                                       : 4
Format                                   :
Format/Info                              : Digital Theater Systems
Codec ID                                 : A_DTS
Duration                                 : 1 h 9 min
Bit rate mode                            : Constant
Bit rate                                 : 1 509 kb/s
Channel(s)                               : 6 channels
Channel layout                           : C L R Ls Rs LFE
Sampling rate                            : 48.0 kHz
Frame rate                               : 93.750 FPS (512 SPF)
Bit depth                                : 24 bits
Compression mode                         : Lossy
Stream size                              : 747 MiB (14%)
Title                                    : / 5.1 Ch / 1509 kbps / Original
Language                                 : English
Default                                  : No
Forced                                   : No

Text #1
ID                                       : 5
Format                                   : UTF-8
Codec ID                                 : S_TEXT/UTF8
Codec ID/Info                            : UTF-8 Plain Text
Duration                                 : 1 h 5 min
Bit rate                                 : 84 b/s
Count of elements                        : 829
Stream size                              : 40.5 KiB (0%)
Title                                    : Full by Lepich
Language                                 : Ukrainian
Default                                  : Yes
Forced                                   : No

Text #2
ID                                       : 6
Format                                   : UTF-8
Codec ID                                 : S_TEXT/UTF8
Codec ID/Info                            : UTF-8 Plain Text
Duration                                 : 1 h 8 min
Bit rate                                 : 58 b/s
Count of elements                        : 975
Stream size                              : 29.4 KiB (0%)
Title                                    : Full
Language                                 : English
Default                                  : No
Forced                                   : No

Menu
00:00:00.000                             : en:Opening / Bandits
00:02:50.837                             : en:Infiltrators
00:04:56.629                             : en:Parting Ways
00:07:57.810                             : en:Spread the Wealth
00:10:33.674                             : en:Lago's Plan
00:14:41.338                             : en:Genie Returns
00:20:02.534                             : en:Return of Jafar
00:24:29.092                             : en:Sultan's Dinner
00:26:13.280                             : en:Unwelcome Guest
00:31:05.822                             : en:Matchmaker
00:34:21.934                             : en:Friends Again?
00:37:58.317                             : en:One Big Family
00:40:40.771                             : en:Magic Carpet Ride
00:45:58.380                             : en:Traitor
00:49:12.908                             : en:False Arrest
00:52:35.026                             : en:Great Escape
00:56:45.360                             : en:Last Wish
00:58:38.264                             : en:Rubbed the Wrong Way
01:03:24.634                             : en:He's Alive
01:05:30.885                             : en:End Credits
01:09:05.182                             : en:Logo
Світлини



3. Аладдін і король розбійників / Aladdin and the King of Thieves (1996) 1080p H.265 Ukr/Eng | Sub Eng
Аладдін і король розбійників / Aladdin and the King of Thieves (1996) 1080p H.265 Ukr/Eng | Sub Eng

Аладдін. Трилогія / Aladdin. Trilogy (1992-1996) 1080p H.265 Ukr/Eng | Sub Eng


Жанр: анімація, пригодницький, комедія, фантастика, мюзикл, сімейний
Країна: США
Кінокомпанія: Disney Television Animation, Disneytoon Studios
Режисер: Тед Стоунс / Tad Stones
Актори: Вел Беттін / Val Bettin, Джим Каммінґс / Jim Cummings, Ґілберт Ґоттфрід / Gilbert Gottfried, Лінда Ларкін / Linda Larkin, Джеррі Орбах / Jerry Orbach, Джон Ріс-Деві / John Rhys-Davies, Скот Вейнґер / Scott Weinger, Френк Велкер / Frank Welker, Робін Вільямс / Robin Williams, Джеф Бенетт / Jeff Bennett та інші

Сюжет:
Довгоочікувана завершальна частина трилогії про простого злодюжку з Аграби. Всі жителі Аграби дружно готуються до найбільшого свята — ось-ось відбудеться довгоочікуване весілля Аладдін і принцеса Жасмін! Але спочатку нашому герою доведеться зупинити легендарну банду сорока розбійників — адже вони хочуть викрасти весільний подарунок — всевидючого Оракула, за допомогою якого лиходії хочуть відшукати і прибрати до своїх рук всі скарби світу. Аладіна і його нерозлучним друзям — Жасмін, Абу, Килимок і веселунові Джинну доведеться пережити чимало пригод і знайти вихід з самих безвихідних ситуацій в гонитві за Королем Розбійників і його завзятою безжалісною бандою...

Тривалість: 01:21:32
Якість:

Відео:
кодек: H.265 (HEVC)
розмір кадру: 1920 x 1080
бітрейт: 7 922 кб/с
бітова глибина: 10 біт

Увага! Перед завантаженням переконайтесь, що ваш пристрій відтворення (та/або ПЗ) підтримує H.265 (HEVC)

Аудіо # 1:
мова: українська
переклад: професійний дубльований | Студія LeDoyen
кодек: AC-3 2.0
бітрейт: 192 кб/с

Аудіо # 2:
мова: англійська
переклад: оригінал
кодек: 5.1
бітрейт: 1510 кб/с

Субтитри # 1-2: (Full, SDH-Colored)
мова: англійська
тип: програмні (м'які)
формат: *.srt


Info
Код:
General
Unique ID                                : 47537865028170448862991735023233741999 (0x23C375B3D0792F20E50ED1D58FE134AF)
Complete name                            : 3. Aladdin and the King of Thieves (1996) 1080p H.265 [UKR_ENG] [Hurtom].
Format                                   :
Format version                           : Version 4
File size                                : 5.48 GiB
Duration                                 : 1 h 21 min
Overall bit rate                         : 9 611 kb/s
Movie name                               : Аладдін і король розбійників / Aladdin and the King of Thieves (1996)
Encoded date                             : UTC 2020-02-27 22:34:03
Writing application                      : v20.0.0 ('I Am The Sun') 64-bit
Writing library                          : libebml v1.3.5 + v1.4.8
Cover                                    : Yes
Attachments                              : Cover.jpg

Video
ID                                       : 1
Format                                   : HEVC
Format/Info                              : High Efficiency Video Coding
Format profile                           : Main [email protected]@High
Codec ID                                 : V_MPEGH/ISO/HEVC
Duration                                 : 1 h 21 min
Bit rate                                 : 7 922 kb/s
Width                                    : 1 920 pixels
Height                                   : 1 080 pixels
Display aspect ratio                     : 16:9
Frame rate mode                          : Constant
Frame rate                               : 23.976 (23976/1000) FPS
Original frame rate                      : 23.976 (24000/1001) FPS
Color space                              : YUV
Chroma subsampling                       : 4:2:0
Bit depth                                : 10 bits
Bits/(Pixel*Frame)                       : 0.159
Stream size                              : 4.51 GiB (82%)
Title                                    : Аладдін і король розбійників / Aladdin and the King of Thieves (1996)
Writing library                          : x265 3.2.1+1-b5c86a64bbbe:[Windows][MSVC 1923][64 bit] 10bit
Encoding settings                        : cpuid=1111039 / frame-threads=3 / numa-pools=12 / wpp / no-pmode / no-pme / no-psnr / no-ssim / log-level=2 / input-csp=1 / input-res=1920x1080 / interlace=0 / total-frames=111100 / level-idc=41 / high-tier=1 / uhd-bd=0 / ref=5 / no-allow-non-conformance / no-repeat-headers / annexb / no-aud / no-hrd / info / hash=0 / no-temporal-layers / open-gop / min-keyint=23 / keyint=240 / gop-lookahead=0 / bframes=8 / b-adapt=2 / b-pyramid / bframe-bias=0 / rc-lookahead=60 / lookahead-slices=4 / scenecut=40 / radl=0 / no-splice / no-intra-refresh / ctu=32 / min-cu-size=8 / rect / amp / max-tu-size=32 / tu-inter-depth=4 / tu-intra-depth=4 / limit-tu=1 / rdoq-level=2 / dynamic-rd=0.00 / no-ssim-rd / signhide / no-tskip / nr-intra=0 / nr-inter=0 / no-constrained-intra / no-strong-intra-smoothing / max-merge=4 / limit-refs=2 / limit-modes / me=3 / subme=7 / merange=57 / temporal-mvp / no-hme / weightp / weightb / no-analyze-src-pics / deblock=-3:-3 / no-sao / no-sao-non-deblock / rd=6 / selective-sao=0 / no-early-skip / no-rskip / no-fast-intra / no-tskip-fast / no-cu-lossless / no-b-intra / no-splitrd-skip / rdpenalty=0 / psy-rd=2.00 / psy-rdoq=1.00 / no-rd-refine / no-lossless / cbqpoffs=0 / crqpoffs=0 / rc=crf / crf=20.0 / qcomp=0.65 / qpstep=4 / stats-write=0 / stats-read=0 / vbv-maxrate=50000 / vbv-bufsize=50000 / vbv-init=0.9 / crf-max=0.0 / crf-min=0.0 / ipratio=1.40 / pbratio=1.30 / aq-mode=1 / aq-strength=1.00 / no-cutree / zone-count=0 / no-strict-cbr / qg-size=32 / no-rc-grain / qpmax=69 / qpmin=0 / no-const-vbv / sar=1 / overscan=0 / videoformat=5 / range=0 / colorprim=1 / transfer=1 / colormatrix=1 / chromaloc=0 / display-window=0 / cll=0,0 / min-luma=0 / max-luma=1023 / log2-max-poc-lsb=8 / vui-timing-info / vui-hrd-info / slices=1 / no-opt-qp-pps / no-opt-ref-list-length-pps / no-multi-pass-opt-rps / scenecut-bias=0.05 / no-opt-cu-delta-qp / no-aq-motion / no-hdr / no-hdr-opt / no-dhdr10-opt / no-idr-recovery-sei / analysis-reuse-level=5 / scale-factor=0 / refine-intra=0 / refine-inter=0 / refine-mv=1 / refine-ctu-distortion=0 / no-limit-sao / ctu-info=0 / no-lowpass-dct / refine-analysis-type=0 / copy-pic=1 / max-ausize-factor=1.0 / no-dynamic-refine / no-single-sei / no-hevc-aq / no-svt / no-field / qp-adaptation-range=1.00
Default                                  : Yes
Forced                                   : No
Color range                              : Limited
Color primaries                          : BT.709
Transfer characteristics                 : BT.709
Matrix coefficients                      : BT.709

Audio #1
ID                                       : 2
Format                                   : AC-3
Format/Info                              : Audio Coding 3
Commercial name                          : Dolby Digital
Codec ID                                 : A_AC3
Duration                                 : 1 h 21 min
Bit rate mode                            : Constant
Bit rate                                 : 192 kb/s
Channel(s)                               : 2 channels
Channel layout                           : L R
Sampling rate                            : 48.0 kHz
Frame rate                               : 31.250 FPS (1536 SPF)
Compression mode                         : Lossy
Stream size                              : 112 MiB (2%)
Title                                    : / 2.0 Ch / 192 kbps / ПД / Студія LeDoyen
Language                                 : Ukrainian
Service kind                             : Complete Main
Default                                  : Yes
Forced                                   : Yes

Audio #2
ID                                       : 3
Format                                   :
Format/Info                              : Digital Theater Systems
Codec ID                                 : A_DTS
Duration                                 : 1 h 21 min
Bit rate mode                            : Constant
Bit rate                                 : 1 509 kb/s
Channel(s)                               : 6 channels
Channel layout                           : C L R Ls Rs LFE
Sampling rate                            : 48.0 kHz
Frame rate                               : 93.750 FPS (512 SPF)
Bit depth                                : 16 bits
Compression mode                         : Lossy
Stream size                              : 882 MiB (16%)
Title                                    : / 5.1 Ch / 1509 kbps / Original
Language                                 : English
Default                                  : No
Forced                                   : No

Text #1
ID                                       : 4
Format                                   : UTF-8
Codec ID                                 : S_TEXT/UTF8
Codec ID/Info                            : UTF-8 Plain Text
Duration                                 : 1 h 20 min
Bit rate                                 : 61 b/s
Count of elements                        : 965
Stream size                              : 36.7 KiB (0%)
Title                                    : Full
Language                                 : English
Default                                  : No
Forced                                   : No

Text #2
ID                                       : 5
Format                                   : UTF-8
Codec ID                                 : S_TEXT/UTF8
Codec ID/Info                            : UTF-8 Plain Text
Duration                                 : 1 h 21 min
Bit rate                                 : 79 b/s
Count of elements                        : 1202
Stream size                              : 47.2 KiB (0%)
Title                                    : SDH-Colored
Language                                 : English
Default                                  : No
Forced                                   : No

Menu
00:00:00.000                             : en:Finally Getting Married
00:07:10.930                             : en:Lifestyles of the Rich and Magical
00:11:41.492                             : en:Party Crashers
00:17:17.119                             : en:The Oracle
00:19:22.202                             : en:The Trail of the Forty Thieves
00:25:45.377                             : en:The Challenge
00:34:07.712                             : en:Making Plans
00:40:32.138                             : en:"Meet My Dad"
00:47:34.810                             : en:A Father-Son Outing
00:56:57.914                             : en:To the Vanishing Isle
01:08:19.136                             : en:Golden Moments
01:17:13.712                             : en:End Credits
Світлини




Джерело: &
Особиста оцінка: 10 - без зайвих вагань рекомендую всім!


Срібний реліз (на рейтинг впливає 50% завантаженого)
 Трекер:    Зареєстрований   

Завантажити / скачати мультфільм українською



відео для новачків



 Зареєстрований:   2020-04-27 22:32
 Розмір:   14.58 GB 
 Оцінка мультфільму:   9.5/10 (Голосів: 20)
   
Anonymous 







2020-04-27 22:32  
Додано доріжку від UFDUB.com для 2 частини.
IRONHIDE 
VIP


З нами з: 06.08.10
Востаннє: 08.03.21
Повідомлень: 279

2020-04-28 11:57  
8/10
kukurudzasergiy 
Новенький


З нами з: 28.05.20
Востаннє: 04.03.21
Повідомлень: 12

2020-11-14 19:50  
Дякую Вам
Ваш часовий пояс: GMT + 2 Години

Нова тема   Відповісти