Атлант розправив плечі / Atlas Shrugged: Part I (2011) 1080p Ukr/Eng | sub Eng

Нові коментарі

Нова тема   Відповісти
Автор Повідомлення
TPEM 
Відео Гуртом - фільмокрай
Відео Гуртом - фільмокрай


З нами з: 30.01.09
Востаннє: 20.09.20
Повідомлень: 413

2020-03-18 01:13  
Атлант розправив плечі / Atlas Shrugged: Part I (2011) 1080p Ukr/Eng | sub Eng

Атлант розправив плечі / Atlas Shrugged: Part I (2011) 1080p Ukr/Eng | sub Eng

Жанр: драма, детектив, фантастика
Країна: США



Кінокомпанія: Atlas Productions
Режисер: Пол Йоханссон
Актори: Еді Гатегі, Тейлор Шилінг, Патрік Фішлер, Джеффрі Пірсон, Пол Йоханссон, Меттью Мерсден, Джоель МакКіннон Міллер, Армін Шімерман, Майкл О'Кіф, Майкл Лернер

Сюжет:
«Атлант розправив плечі» розповідає про прихід соціалістів до влади в усьому світі. Починаються гоніння на великий бізнес, вільний ринок поступається плановій економіці, Америка поступово занурюється в хаос і темряву. Головні герої - власниця залізничної компанії Даґні Таґґарт і глава металургійних заводів Генк Ріарден намагаються протистояти новим засадам...


Тривалість: 01:37:07
Якість:
Відео:
кодек:
розмір кадру: 1920 х 816
бітрейт: 6 899 кб/с

Аудіо # 1:
мова: українська
переклад: багатоголосий закадровий
кодек: 2.0
бітрейт: 192 кб/с

Аудіо # 2:
мова: англійська
переклад: оригінал
кодек: 2.0
бітрейт: 192 кб/с

Аудіо # 3:
мова: англійська
переклад: оригінал
кодек: 5.1
бітрейт: 1509 кб/с

Аудіо # 4: Коментарі: Браян Патрік О’Тул і знімальна група
мова: англійська
переклад: оригінал
кодек: 2.0
бітрейт: 224 кб/с

Джерело озвучення:


Субтитри:
мова: англійська
тип: програмні (м'які)
формат: *.srt
Info
General
Unique ID : 268446846367390837841256689122025109634 (0xC9F4FB63AA6ADD885A92B326A6A77882)
Complete name : D:\uTorrent\Atlas Shrugged. Part I (2011) 1080p [Ukr,Eng] [Hurtom].
Format :
Format version : Version 4
File size : 6.10 GiB
Duration : 1 h 37 min
Overall bit rate : 8 990 kb/s
Movie name : Атлант розправив плечі / Atlas Shrugged: Part I (2011)
Encoded date : UTC 2020-03-17 21:51:07
Writing application : v44.0.0 ('Domino') 64-bit
Writing library : libebml v1.3.10 + v1.5.2
Cover : Yes
Attachments : cover.jpg

Video
ID : 1
Format : AVC
Format/Info : Advanced Video Codec
Format profile : [email protected]
Format settings : CABAC / 5 Ref Frames
Format settings, CABAC : Yes
Format settings, Reference frames : 5 frames
Codec ID : V_MPEG4/ISO/AVC
Duration : 1 h 36 min
Bit rate : 6 899 kb/s
Width : 1 920 pixels
Height : 816 pixels
Display aspect ratio : 2.35:1
Frame rate mode : Constant
Frame rate : 23.976 (24000/1001) FPS
Color space : YUV
Chroma subsampling : 4:2:0
Bit depth : 8 bits
Scan type : Progressive
Bits/(Pixel*Frame) : 0.184
Stream size : 4.66 GiB (76%)
Writing library : core 119 r2106 07efeb4
Encoding settings : cabac=1 / ref=5 / deblock=1:-4:-4 / analyse=0x3:0x133 / me=umh / subme=11 / psy=1 / psy_rd=0.90:0.02 / mixed_ref=1 / me_range=64 / chroma_me=1 / trellis=2 / 8x8dct=1 / cqm=0 / deadzone=21,11 / fast_pskip=0 / chroma_qp_offset=-3 / threads=12 / sliced_threads=0 / nr=0 / decimate=0 / interlaced=0 / bluray_compat=0 / constrained_intra=0 / bframes=9 / b_pyramid=2 / b_adapt=2 / b_bias=0 / direct=3 / weightb=1 / open_gop=0 / weightp=2 / keyint=240 / keyint_min=2 / scenecut=40 / intra_refresh=0 / rc=2pass / mbtree=0 / bitrate=6899 / ratetol=1.0 / qcomp=0.70 / qpmin=0 / qpmax=69 / qpstep=4 / cplxblur=20.0 / qblur=0.5 / ip_ratio=1.40 / pb_ratio=1.30 / aq=2:1.00
Language : English
Default : Yes
Forced : No

Audio #1
ID : 2
Format : AC-3
Format/Info : Audio Coding 3
Commercial name : Dolby Digital
Codec ID : A_AC3
Duration : 1 h 37 min
Bit rate mode : Constant
Bit rate : 192 kb/s
Channel(s) : 2 channels
Channel layout : L R
Sampling rate : 48.0 kHz
Frame rate : 31.250 FPS (1536 SPF)
Compression mode : Lossy
Stream size : 133 MiB (2%)
Title : НТН
Language : Ukrainian
Service kind : Complete Main
Default : Yes
Forced : Yes

Audio #2
ID : 3
Format : AC-3
Format/Info : Audio Coding 3
Commercial name : Dolby Digital
Codec ID : A_AC3
Duration : 1 h 37 min
Bit rate mode : Constant
Bit rate : 192 kb/s
Channel(s) : 2 channels
Channel layout : L R
Sampling rate : 48.0 kHz
Frame rate : 31.250 FPS (1536 SPF)
Compression mode : Lossy
Stream size : 133 MiB (2%)
Language : English
Service kind : Complete Main
Default : No
Forced : No

Audio #3
ID : 4
Format :
Format/Info : Digital Theater Systems
Codec ID : A_DTS
Duration : 1 h 37 min
Bit rate mode : Constant
Bit rate : 1 509 kb/s
Channel(s) : 6 channels
Channel layout : C L R Ls Rs LFE
Sampling rate : 48.0 kHz
Frame rate : 93.750 FPS (512 SPF)
Bit depth : 24 bits
Compression mode : Lossy
Stream size : 1.02 GiB (17%)
Language : English
Default : No
Forced : No

Audio #4
ID : 5
Format : AC-3
Format/Info : Audio Coding 3
Commercial name : Dolby Digital
Codec ID : A_AC3
Duration : 1 h 37 min
Bit rate mode : Constant
Bit rate : 224 kb/s
Channel(s) : 2 channels
Channel layout : L R
Sampling rate : 48.0 kHz
Frame rate : 31.250 FPS (1536 SPF)
Compression mode : Lossy
Stream size : 155 MiB (2%)
Title : Commentary: Brian Patrick O'Toole and others
Language : English
Service kind : Complete Main
Default : No
Forced : No

Text
ID : 6
Format : UTF-8
Codec ID : S_TEXT/UTF8
Codec ID/Info : UTF-8 Plain Text
Duration : 1 h 28 min
Bit rate : 80 b/s
Count of elements : 1329
Stream size : 52.1 KiB (0%)
Language : English
Default : No
Forced : No

Menu
00:00:00.000 : en:The World of 2016
00:05:10.810 : en:"Midas" Vanishes
00:10:04.229 : en:Meet the Taggarts
00:14:02.842 : en:First Pour
00:16:12.847 : en:A Ride Home?
00:18:56.302 : en:The Rearden Family
00:21:58.192 : en:Chain that Binds Us
00:24:57.037 : en:Money for Charity
00:27:32.943 : en:Paul Larkin Questions
00:31:17.876 : en:"My Only Goal…"
00:36:51.835 : en:Man in Washington
00:45:26.724 : en:Ore Mine Deal
00:49:57.036 : en:Out of Mexico
00:52:52.086 : en:Owen Kellogg
00:56:05.195 : en:Metal / Railroad
01:01:52.042 : en:Richard McNamara
01:04:03.631 : en:Nationalized
01:05:53.283 : en:Anti-Dog-Eat-Dog
01:09:36.381 : en:Visit from Ellis
01:15:12.675 : en:Dinner with Rearden
01:19:35.270 : en:Party Invite
01:24:02.871 : en:Confront Francisco
01:26:55.377 : en:One Night?
01:29:09.844 : en:Anniversary Party
Скріншоти





Слова подяки написано:
За запис та українську доріжку - Bohdan237 та Arsenfpu



Джерело:
Особиста оцінка: 8 - мені сподобалося


 Трекер:    Зареєстрований   

Завантажити / скачати фільм українською



відео для новачків



 Зареєстрований:   2020-03-18 01:25
 Розмір:   6.1 GB 
 Оцінка фільму:   9.8/10 (Голосів: 9)
   
Інші релізи
-Star-Lord- 
VIP


З нами з: 09.08.18
Востаннє: 21.09.20
Повідомлень: 1979

2020-03-18 01:22  
TPEM написано:
кодек: 2.0

->

Додано через 51 секунду:

Аудіо 1

sandman 
VIP


З нами з: 12.08.12
Востаннє: 19.09.20
Повідомлень: 361

2020-03-18 10:32  
Книга - неймовірна, екранізація досить посередня. До того ж псує враження, що у всіх 3-х частинай головних героїв грають абсолютно різні актори. Проте, одноразового перегляду однозначно варте.
І зробіть, будь ласка, "Даґні Таґґарт" і "Генк Ріарден". Є автентичний переклад "Нашого Формату" і саме так мають звучати імена головних героїв

TPEM 
Відео Гуртом - фільмокрай
Відео Гуртом - фільмокрай


З нами з: 30.01.09
Востаннє: 20.09.20
Повідомлень: 413

2020-03-18 23:51  
sandman
Поправив. Дякую за коментар

VINRARUS 
Поважний учасник


З нами з: 16.11.11
Востаннє: 19.09.20
Повідомлень: 210

2020-03-21 15:59  
Оооо, класний інтелектуальний фільм, правда для егоїстів. Tongue out (1)
Невже будуть всі 3 частини?

genauk 
VIP


З нами з: 29.09.12
Востаннє: 20.09.20
Повідомлень: 263

2020-04-20 16:49  
Інших частин українською немає?
dmasterg 
Новенький


З нами з: 24.03.18
Востаннє: 20.09.20
Повідомлень: 2

2020-05-08 11:50  
Будуть решта частин українською?
genauk 
VIP


З нами з: 29.09.12
Востаннє: 20.09.20
Повідомлень: 263

2020-05-08 11:51  
dmasterg
Друга частина ще нормальна. Третю нема сенсу дивитись.

dmasterg 
Новенький


З нами з: 24.03.18
Востаннє: 20.09.20
Повідомлень: 2

2020-05-12 11:49  
genauk
та було б що двитись - чекаю на переклад українською...

akella225 
Новенький


З нами з: 25.01.16
Востаннє: 13.09.20
Повідомлень: 11

2020-06-11 20:50  
дякую, а ще два?
pankos 
Частий відвідувач


З нами з: 16.01.11
Востаннє: 20.09.20
Повідомлень: 35

2020-06-12 23:40  
Випростав плечі.
Tryastsya 
Відео Гуртом - підтримка та поширення
Відео Гуртом - підтримка та поширення


З нами з: 01.08.08
Востаннє: 11.09.20
Повідомлень: 141

2020-06-19 20:04  
Теж переглянув стрічку, хотілось би ще подивитись другу та третю частини українською.
Авторам релізу - величезне дякую за вашу роботу!

Ваш часовий пояс: GMT + 2 Години

Нова тема   Відповісти