Бейблейд Вибух Зліт / Beyblade Burst Rise (Сезон 4) (2020) 1080p

Нові коментарі

Нова тема   Відповісти
Автор Повідомлення
sergiyko.5 
VIP


З нами з: 25.02.16
Востаннє: 03.04.20
Повідомлень: 3016

2020-03-17 14:50  


Бейблейд Вибух Зліт / Beyblade Burst Rise (Сезон 4) (2020) 1080p

Бейблейд Вибух Зліт / Beyblade Burst Rise (Сезон 4) (2020) 1080p

Жанр: пригоди, спорт
Країна: Японія
Кінокомпанія: OLM (Team Abe)
Режисер: Катсушито Акіяма

Сюжет:
Чимало енергії потрібно, щоб перемогти 100 суперників. Айгер дуже зрадів, що буде битися з Фубукі, але Емперрор Форнеус розбив його. Попередні матчі настільки виснажили його, що він просто відключився. Прокинувшись, він дізнався, що його сестра Нару разом з ним вчитиметься в академії Бейгома. Потім він домовився про битву проти лідера дикої бей-банди Ранджіро. Айгер старався щосили, та бій скінчився в нічию. Але наступного разу він просто зобов’язаний перемогти!




Тривалість: 1 серія: 12:00 (цілком серій: 1 з 50)
Якість:

Відео: кодек: розмір кадру: 1920 х 1080 бітрейт: 5000 кб/с
Аудіо: мова: українська переклад: професійний дубльований кодек: бітрейт: 192 кб/с | Stereo |
Озвучення:
Перелік серій

01 Айс Драгон! На зліт!
02 Неймовірно! Бушін Ашіндра!
03 Абракадабра! Візард Фафнір!
04 З вогню! Гліф Дрегон!
05 Дрегон проти Фафніра!
06 Вибухова швидкість! Гліф удар!
07 Натхнення! Виклик Уолту!
Про файл:
General
Unique ID : 318916023501825815146372641717207445557 (0xEFECFDEFD3800C3FAD2C65C1B60C3035)
Complete name : D:\Documents\Torrents\MULTSER_2\Beyblade Burst Rise S04 1080p \S04E01.Ace Dragon! On The Rise.1080p..
Format :
Format version : Version 4
File size : 448 MiB
Duration : 12 min 4 s
Overall bit rate : 5 189 kb/s
Movie name : Beyblade Burst Rise by sergiyko
Writing application : Lavf58.41.100
Writing library : Lavf58.41.100
ErrorDetectionType : Per level 1

Video
ID : 1
Format : AVC
Format/Info : Advanced Video Codec
Format profile : [email protected]
Format settings : CABAC / 4 Ref Frames
Format settings, CABAC : Yes
Format settings, Reference fra : 4 frames
Codec ID : V_MPEG4/ISO/AVC
Duration : 12 min 4 s
Bit rate : 7 877 kb/s
Width : 1 920 pixels
Height : 1 080 pixels
Display aspect ratio : 16:9
Frame rate mode : Constant
Frame rate : 25.000 FPS
Color space : YUV
Chroma subsampling : 4:2:0
Bit depth : 8 bits
Scan type : Progressive
Bits/(Pixel*Frame) : 0.152
Stream size : 680 MiB
Title : S04E01.Ace Dragon! On The Rise
Writing library : core 159
Encoding settings : cabac=1 / ref=4 / deblock=1:0:0 / analyse=0x3:0x133 / me=umh / subme=10 / psy=1 / psy_rd=1.00:0.00 / mixed_ref=1 / me_range=24 / chroma_me=1 / trellis=2 / 8x8dct=1 / cqm=0 / deadzone=21,11 / fast_pskip=1 / chroma_qp_offset=-2 / threads=24 / lookahead_threads=4 / sliced_threads=0 / nr=0 / decimate=1 / interlaced=0 / bluray_compat=0 / constrained_intra=0 / bframes=8 / b_pyramid=2 / b_adapt=2 / b_bias=0 / direct=3 / weightb=1 / open_gop=0 / weightp=2 / keyint=250 / keyint_min=25 / scenecut=40 / intra_refresh=0 / rc_lookahead=60 / rc=crf / mbtree=1 / crf=19.0 / qcomp=0.60 / qpmin=0 / qpmax=69 / qpstep=4 / ip_ratio=1.40 / aq=1:1.00
Language : English
Default : Yes
Forced : No

Audio
ID : 2
Format : AC-3
Format/Info : Audio Coding 3
Commercial name : Dolby Digital
Codec ID : A_AC3
Duration : 12 min 4 s
Bit rate mode : Constant
Bit rate : 192 kb/s
Channel(s) : 2 channels
Channel layout : L R
Sampling rate : 48.0 kHz
Frame rate : 31.250 FPS (1536 SPF)
Bit depth : 32 bits
Compression mode : Lossy
Delay relative to video : -200 ms
Stream size : 16.6 MiB (4%)
Title : DUB 2ch | ПлюсПлюс
Language : Ukrainian
Service kind : Complete Main
Default : Yes
Forced : No
Скріншоти:


Запис/зведення: sergiyko


Бронзовий реліз (на рейтинг впливає 75% завантаженого)
 Трекер:    Зареєстрований   

Завантажити / скачати аніме українською



відео для новачків



 Зареєстрований:   2020-03-17 15:31
 Розмір:   448 MB 
 Оцінка аніме:   10/10 (Голосів: 3)
   
Ваш часовий пояс: GMT + 2 Години

Нова тема   Відповісти