Судити по совісті / Just Mercy (2019) 1080p Eng | Sub Ukr/Eng

Нові коментарі

Нова тема   Відповісти
Автор Повідомлення
Anonymous 







2020-03-17 11:12  
Судити по совісті / Just Mercy (2019) 1080p Eng | Sub Ukr/Eng

Альтернативний постер:


Жанр: біографічний, кримінальний, драма
Країна: США



Кінокомпанія: Warner Bros. Pictures, Endeavor Content, One Community, Participant Media, MACRO, Netter Productions, Outlier Society
Режисер: Дестін Деніел Креттон / Destin Daniel Cretton
Актори: Майкл Б. Джордан, Брі Ларсон, Джеймi Фокс, Тім Блейк Нельсон, Рейф Сполл, О’Ши Джексон мол., Роб Морґан, Стів Култер, Каран Кендрік, Дрю Шейд та інші.

Сюжет:
Реальна історія обдарованого чорношкірого юриста Браяна Стівенсона. Він присвятив себе боротьбі за рівні права і можливості в суді для найуразливіших верств населення — в тому числі незаможних, які не в змозі дозволити собі кваліфікованого і зацікавленого в успішному результаті справи адвоката.


Альтернативний опис:
У Сполучених Штатах у кожного є право на юридичний захист, тільки дуже часто так буває, що Ваш адвокат абсолютно не зацікавлений у Вашому порятунку. Але Браян Стівенсон абсолютно не такий. Він обдарований темношкірий юрист, який сам собі пробив дорогу в еліту американської юриспруденції. І весь свій талант хлопець готовий направити на боротьбу за рівноправність. Браян захищатиме тих, у кого немає грошей на хорошого адвоката, щоб домагатися справедливості. Адвокат буде братися навіть за найбільш безнадійні справи – так доля його звела із засудженим до смертної кари Волтером МакМілліаном. Судити треба перш за все серцем, адже в будь-який момент на місці тюремних ув'язнених може опинитися будь-хто з нас.
Офіційний український трейлер:


Рейтинг MPAA: PG-13 - дітям до 13 років перегляд не бажаний
Вікова категорія: 12+

Тривалість: 02:17:01
Якість: 1080p
Відео:
кодек:
розмір кадру: 1920 х 1036
бітрейт: 5150 кб/с

Аудіо:*
мова: англійська
переклад: оригінал
кодек: 5.1
бітрейт: 384 кб/с

Субтитри # 1:
мова: українська
тип: програмні (м'які)
формат: *.srt
переклад: офіційний, Віталій Данмер

Субтитри # 2-3:
мова: англійська (повні, SDH)
тип: програмні (м'які)
формат: *.srt

Збережено оригінальні розділи
Info
Код:

Complete name               : Just Mercy (2019) [Eng, sub.Ukr,Eng ] 1080p [Hurtom].
Format                      :
Format version              : Version 4
File size                   : 5.30 GiB
Duration                    : 2 h 17 min
Overall bit rate            : 5 536 kb/s
Movie name                  : Судити по совісті / Just Mercy (2019) [Eng, sub.Ukr,Eng ] 1080p [Hurtom]
Encoded date                : UTC 2020-03-17 10:07:02
Writing application         : v44.0.0 ('Domino') 64-bit
Writing library             : libebml v1.3.10 + v1.5.2
Cover                       : Yes
Attachments                 : cover.jpg

Video
ID                          : 1
Format                      : AVC
Format/Info                 : Advanced Video Codec
Format profile              : [email protected]
Format settings             : CABAC / 4 Ref Frames
Format settings, CABAC      : Yes
Format settings, Reference  : 4 frames
Codec ID                    : V_MPEG4/ISO/AVC
Duration                    : 2 h 17 min
Bit rate                    : 5 150 kb/s
Width                       : 1 920 pixels
Height                      : 1 036 pixels
Display aspect ratio        : 1.85:1
Frame rate mode             : Constant
Frame rate                  : 23.976 (24000/1001) FPS
Color space                 : YUV
Chroma subsampling          : 4:2:0
Bit depth                   : 8 bits
Scan type                   : Progressive
Bits/(Pixel*Frame)          : 0.108
Stream size                 : 4.93 GiB (93%)
Title                       : Судити по совісті / Just Mercy (2019) 1080p [EVO]
Language                    : English
Default                     : Yes
Forced                      : No
Color range                 : Limited
Color primaries             : BT.709
Transfer characteristics    : BT.709
Matrix coefficients         : BT.709

Audio
ID                          : 2
Format                      : AC-3
Format/Info                 : Audio Coding 3
Commercial name             : Dolby Digital
Codec ID                    : A_AC3
Duration                    : 2 h 17 min
Bit rate mode               : Constant
Bit rate                    : 384 kb/s
Channel(s)                  : 6 channels
Channel layout              : L R C LFE Ls Rs
Sampling rate               : 48.0 kHz
Frame rate                  : 31.250 FPS (1536 SPF)
Compression mode            : Lossy
Stream size                 : 376 MiB (7%)
Language                    : English
Service kind                : Complete Main
Default                     : Yes
Forced                      : No

Text #1
ID                          : 3
Format                      : UTF-8
Codec ID                    : S_TEXT/UTF8
Codec ID/Info               : UTF-8 Plain Text
Duration                    : 2 h 12 min
Bit rate                    : 112 b/s
Count of elements           : 1677
Stream size                 : 109 KiB (0%)
Title                       : Ukr Full [iTunes]
Language                    : Ukrainian
Default                     : Yes
Forced                      : Yes

Text #2
ID                          : 4
Format                      : UTF-8
Codec ID                    : S_TEXT/UTF8
Codec ID/Info               : UTF-8 Plain Text
Duration                    : 2 h 8 min
Bit rate                    : 65 b/s
Count of elements           : 1920
Stream size                 : 61.7 KiB (0%)
Title                       : Eng Full
Language                    : English
Default                     : No
Forced                      : No

Text #3
ID                          : 5
Format                      : UTF-8
Codec ID                    : S_TEXT/UTF8
Codec ID/Info               : UTF-8 Plain Text
Duration                    : 2 h 9 min
Bit rate                    : 70 b/s
Count of elements           : 2097
Stream size                 : 66.8 KiB (0%)
Title                       : Eng SDH
Language                    : English
Default                     : No
Forced                      : No

Menu
00:00:00.000                : en:1
00:09:08.965                : en:2
00:17:46.565                : en:3
00:28:30.750                : en:4
00:34:24.311                : en:5
00:44:16.194                : en:6
00:53:56.357                : en:7
01:01:15.545                : en:8
01:10:44.238                : en:9
01:14:59.325                : en:10
01:23:07.813                : en:11
01:29:11.051                : en:12
01:39:06.687                : en:13
01:46:43.601                : en:14
01:54:44.872                : en:15
02:04:17.526                : en:16
02:10:16.050                : en:17



Джерело: &

* При появі українського озвучення/дубляжу реліз буде оновлено.


 Трекер:    Зареєстрований   

Завантажити / скачати фільм українською



відео для новачків



 Зареєстрований:   2020-03-17 12:25
 Розмір:   5.3 GB 
 Оцінка фільму:   8.8/10 (Голосів: 12)
 ЗАЛИШАЙТЕСЬ ЯКОМОГА ДОВШЕ НА РОЗДАЧІ! ЗАВАНТАЖИВ САМ - ДАЙ ЗАВАНТАЖИТИ ІНШИМ!
   
77997997 
VIP


З нами з: 26.02.13
Востаннє: 29.11.20
Повідомлень: 1213

2020-03-17 12:00  
https://play.google.com/store/movies/details/Just_Mercy?id=4ONIbgWYcT8.P&hl=en_US
в Google Play буде наша 5.1 доріжка

Anonymous 







2020-03-17 23:00  
77997997 написано:
в Google Play буде наша 5.1 доріжка

так, вже є з Амазону, незабаром буде оновлення релізу.

anton.alexeev 
Новенький


З нами з: 10.02.20
Востаннє: 23.04.20
Повідомлень: 2

2020-04-19 18:54  
Дуже дякую за роздачу!
Ваш часовий пояс: GMT + 2 Години

Нова тема   Відповісти