Мільйонер з нетрів (Мільйонер із нетрів) / Slumdog Millionaire (2008) AVC 3xUkr/Eng | Sub Eng [Open Matte]

Нові коментарі

Нова тема   Відповісти
Автор Повідомлення
Arsenfpu 
Відео Гуртом - фільмокрай
Відео Гуртом - фільмокрай


З нами з: 30.04.09
Востаннє: 11.07.20
Повідомлень: 7051

2020-03-16 03:18  
Мільйонер з нетрів (Мільйонер із нетрів) / Slumdog Millionaire (2008) AVC 3xUkr/Eng | Sub Eng [Open Matte]

Мільйонер з нетрів (Мільйонер із нетрів) / Slumdog Millionaire (2008) AVC 3xUkr/Eng | Sub Eng [Open Matte]


Жанр: драма, мелодрама
Країна: Велика Британія, США



Кінокомпанія: Warner Bros., Celador Films, Film4, Pathé Pictures International
Режисер: Денні Бойл, Лавлін Тандан
Актори: Дев Патель, Аніл Капур, Саурабх Шукла, Рахендранат Зутши, Женева Талвар, Фріда Пінто, Ірфан Хан, Ажаруддін Мохаммед Ізмаїл, Аюш Махеш Кхедекар, Суніл Кумар Агравал, Жира Банжара, Шейх Валі

Сюжет:
Джамаль Малік, 18-літній сирота з нетрів індійського міста Мумбаї, усього за один крок від перемоги у грі "Хто хоче стати мільйонером?" і виграшу 20 мільйонів рупій. Перервавши гру, його заарештовує поліція за підозрою у шахрайстві. Звідки юнак, який виріс на вулиці, може знати так багато?
Виявляється, відповіді на усі запитання хлопцеві підказало... саме життя.


Тривалість: 02:00:38
Якість:
Відео:
кодек:
розмір кадру: 1 024 х 576
бітрейт: 2812 кб/с

Аудіо # 1:
мова: українська
переклад: професійний дубльований
кодек: 2.0
бітрейт: 192 кб/с

Аудіо # 2:
мова: українська
переклад: багатоголосий закадровий
кодек: 2.0
бітрейт: 192 кб/с

Аудіо # 3:
мова: українська
переклад: багатоголосий закадровий
кодек: 2.0
бітрейт: 192 кб/с

Аудіо # 4:
мова: англійська
переклад: оригінал
кодек: 2.0
бітрейт: 192 кб/с

Субтитри:
мова: англійська
тип: програмні (м'які)
формат: *.srt
Скріншоти














Про файл
General
Unique ID : 70006286176357144049628869859539129557 (0x34AAB8648C41A7F0AAC2470EF4EB94D5)
Complete name : C:\Slumdog Millionaire (2008) [3xUkr,Eng] AVC [Hurtom].
Format :
Format version : Version 4 / Version 2
File size : 3.01 GiB
Duration : 2 h 0 min
Overall bit rate : 3 578 kb/s
Movie name : Мільйонер із нетрів / Slumdog Millionaire (2008)
Encoded date : UTC 2020-03-15 23:46:46
Writing application : v21.0.0 ('Tardigrades Will Inherit The Earth') 32-bit
Writing library : libebml v1.3.5 + v1.4.8 / Lavf58.29.100
Cover : Yes
Attachments : cover.jpg
Language : und

Video
ID : 1
Format : AVC
Format/Info : Advanced Video Codec
Format profile : [email protected]
Format settings, CABAC : Yes
Format settings, ReFrames : 14 frames
Codec ID : V_MPEG4/ISO/AVC
Duration : 2 h 0 min
Bit rate : 2 812 kb/s
Width : 1 024 pixels
Height : 576 pixels
Display aspect ratio : 16:9
Frame rate mode : Constant
Frame rate : 23.976 (24000/1001) FPS
Color space : YUV
Chroma subsampling : 4:2:0
Bit depth : 8 bits
Scan type : Progressive
Bits/(Pixel*Frame) : 0.199
Stream size : 2.37 GiB (78%)
Writing library : core 157 r2958 57baac4
Encoding settings : cabac=1 / ref=14 / deblock=1:-3:-3 / analyse=0x3:0x133 / me=umh / subme=11 / psy=1 / psy_rd=1.00:0.15 / mixed_ref=1 / me_range=32 / chroma_me=1 / trellis=2 / 8x8dct=1 / cqm=0 / deadzone=21,11 / fast_pskip=0 / chroma_qp_offset=-3 / threads=6 / lookahead_threads=1 / sliced_threads=0 / nr=0 / decimate=0 / interlaced=0 / bluray_compat=0 / constrained_intra=0 / bframes=12 / b_pyramid=2 / b_adapt=2 / b_bias=0 / direct=3 / weightb=1 / open_gop=0 / weightp=2 / keyint=240 / keyint_min=24 / scenecut=40 / intra_refresh=0 / rc_lookahead=60 / rc=2pass / mbtree=0 / bitrate=2812 / ratetol=1.0 / qcomp=0.70 / qpmin=0 / qpmax=69 / qpstep=4 / cplxblur=20.0 / qblur=0.5 / vbv_maxrate=50000 / vbv_bufsize=62500 / nal_hrd=none / filler=0 / ip_ratio=1.40 / pb_ratio=1.30 / aq=3:0.80
Default : Yes
Forced : No
Color range : Limited
Color primaries : BT.709
Transfer characteristics : BT.709
Matrix coefficients : BT.709

Audio #1
ID : 2
Format : AC-3
Format/Info : Audio Coding 3
Mode extension : CM (complete main)
Format settings, Endianness : Big
Codec ID : A_AC3
Duration : 2 h 0 min
Bit rate mode : Constant
Bit rate : 192 kb/s
Channel(s) : 2 channels
Channel positions : Front: L R
Sampling rate : 48.0 kHz
Frame rate : 31.250 FPS (1536 spf)
Compression mode : Lossy
Stream size : 166 MiB (5%)
Title : 1+1
Language : Ukrainian
Default : Yes
Forced : Yes

Audio #2
ID : 3
Format : AC-3
Format/Info : Audio Coding 3
Mode extension : CM (complete main)
Format settings, Endianness : Big
Codec ID : A_AC3
Duration : 2 h 0 min
Bit rate mode : Constant
Bit rate : 192 kb/s
Channel(s) : 2 channels
Channel positions : Front: L R
Sampling rate : 48.0 kHz
Frame rate : 31.250 FPS (1536 spf)
Compression mode : Lossy
Stream size : 166 MiB (5%)
Title : Інтер
Language : Ukrainian
Default : No
Forced : No

Audio #3
ID : 4
Format : AC-3
Format/Info : Audio Coding 3
Mode extension : CM (complete main)
Format settings, Endianness : Big
Codec ID : A_AC3
Duration : 2 h 0 min
Bit rate mode : Constant
Bit rate : 192 kb/s
Channel(s) : 2 channels
Channel positions : Front: L R
Sampling rate : 48.0 kHz
Frame rate : 31.250 FPS (1536 spf)
Compression mode : Lossy
Stream size : 166 MiB (5%)
Title : ICTV
Language : Ukrainian
Default : No
Forced : No

Audio #4
ID : 5
Format : AC-3
Format/Info : Audio Coding 3
Mode extension : CM (complete main)
Format settings, Endianness : Big
Codec ID : A_AC3
Duration : 2 h 0 min
Bit rate mode : Constant
Bit rate : 192 kb/s
Channel(s) : 2 channels
Channel positions : Front: L R
Sampling rate : 48.0 kHz
Frame rate : 31.250 FPS (1536 spf)
Compression mode : Lossy
Stream size : 166 MiB (5%)
Language : English
Default : No
Forced : No

Text
ID : 6
Format : UTF-8
Codec ID : S_TEXT/UTF8
Codec ID/Info : UTF-8 Plain Text
Duration : 1 h 59 min
Bit rate : 33 b/s
Count of elements : 1007
Stream size : 29.3 KiB (0%)
Language : English
Default : No
Forced : No

Menu
00:00:00.000 : :Глава 1
00:06:52.579 : :Глава 2
00:16:47.048 : :Глава 3
00:29:17.297 : :Глава 4
00:36:52.919 : :Глава 5
00:46:09.934 : :Глава 6
00:56:10.784 : :Глава 7
01:09:06.100 : :Глава 8
01:23:18.285 : :Глава 9
01:37:58.081 : :Глава 10
01:50:02.388 : :Глава 11
Джерело:
За доріжки від 1+1 та ICTV дякую п. patriot2305, Sando7, slavik_v_z, POMEO, ratbol
За постер дякую п. ТРЕМ, d1mma, DrediS
Особиста оцінка: раз можна


 Трекер:    Зареєстрований   

Завантажити / скачати фільм українською



відео для новачків



 Зареєстрований:   2020-03-16 03:18
 Розмір:   3.01 GB 
 Оцінка фільму:   9.5/10 (Голосів: 20)
   
behemot86 
Свій


З нами з: 04.10.10
Востаннє: 09.07.20
Повідомлень: 69

2020-03-16 11:43  
Фільм з цим перекладом - просто бімба! Головний герой - красівчик!
21jumpstreet 
VIP


З нами з: 03.07.12
Востаннє: 11.07.20
Повідомлень: 1095

2020-03-16 13:52  
behemot86
З яким саме перекладом? Їх тут три.

piznajko 
Відео Гуртом - субтитрування
Відео Гуртом - субтитрування


З нами з: 24.02.09
Востаннє: 10.07.20
Повідомлень: 2198

2020-03-17 23:03  
Ще є одноголоска любительська

staf777 написано:

Аудіо # 3:
мова: українська
переклад: одноголосий закадровий | ua2004
кодек: 2.0
бітрейт: 192 Кбіт/с

MutuLI 
Відео Гуртом - фільмокрай
Відео Гуртом - фільмокрай


З нами з: 08.03.09
Востаннє: 11.07.20
Повідомлень: 1891

2020-03-17 23:17  
piznajko написано:
Ще є одноголоска любительська

Якщо не помиляюсь, то це здається перша любительська озвучка на Толоці, тож такий раритет було б добре зберегти, додавши до релізу.

diagen201 
Новенький


З нами з: 06.09.13
Востаннє: 11.07.20
Повідомлень: 9

2020-03-19 22:08  
Дивитись цей фільм обов*язково! Дуже класний фільм який розчулив.
gaidai 
VIP


З нами з: 06.07.10
Востаннє: 29.06.20
Повідомлень: 276

2020-03-23 23:17  
Питання на 20 мільйонів рупій - це просто бімба )))) Мабуть у нас всі діти (мого покоління) знали цих трьох мушкетерів Happy
Фільм дуже хороший, трохи наївний, але... Дивлюся вдруге.

vitbol 
Частий відвідувач


З нами з: 05.12.10
Востаннє: 07.07.20
Повідомлень: 45

2020-04-03 22:06  
Дивився давно - бомба! Тепер перегляну з українською озвучкою.
Arsenfpu 
Відео Гуртом - фільмокрай
Відео Гуртом - фільмокрай


З нами з: 30.04.09
Востаннє: 11.07.20
Повідомлень: 7051

2020-04-04 08:20  
vitbol
Певно англійською.

Ваш часовий пояс: GMT + 2 Години

Нова тема   Відповісти