Суперсімейка. Дилогія / The Incredibles. Dilogy (2004-2018) 1080p H.265 Ukr/Eng | Sub Ukr/Eng

Нові коментарі

Нова тема   Відповісти
Автор Повідомлення
Anonymous 







2020-03-16 00:11  
Суперсімейка. Дилогія / The Incredibles. Dilogy (2004-2018) 1080p H.265 Ukr/Eng | Sub Ukr/Eng

Суперсімейка. Дилогія / The Incredibles. Dilogy (2004-2018) 1080p H.265 Ukr/Eng | Sub Ukr/Eng

1. 2.

1. Суперсімейка / The Incredibles (2004) 1080p H.265 Ukr/Eng | Sub Ukr/Eng
Суперсімейка / The Incredibles (2004) 1080p H.265 Ukr/Eng | Sub Ukr/Eng

Суперсімейка. Дилогія / The Incredibles. Dilogy (2004-2018) 1080p H.265 Ukr/Eng | Sub Ukr/Eng


Жанр: анімація, фантастика, сімейний, комедія
Країна: США
Кінокомпанія: Pixar, Walt Disney Pictures
Режисер: Бред Берд
Актори: Крейґ Т. Нельсон, Голі Гантер, Джейсон Лі, Домінік Луї, Семюел Л. Джексон, Тедді Ньютон, Джин Сінсір, Ілай Фучіле, Маїв Ендрюс, Воллес Шоун

Сюжет:
Ця сімейка мешкає в тихому передмісті. Вони — сім'я супергероїв, проте вони вже відійшли від великих справ і вважають за краще жити звичним непримітним життям. Усі члени сім'ї мають надприродні здібності й у минулому легко справлялися зі злом світового масштабу. Аж ось одного прекрасного дня татові і усій його родині доводиться знов одягтися в прогумовані костюми супергероїв і відправитися назустріч новим пригодам. Потрібно вкотре врятувати світ від таємничого лиходія. Хто ж він такий? Цього ще не знають навіть герої з суперсімейки…

Тривалість: 01:55:25
Якість:

Відео:
кодек: H.265 (HEVC)
розмір кадру: 1920 x 804
бітрейт: 4 802 кб/с
бітова глибина: 10 біт

Увага! Перед завантаженням переконайтесь, що ваш пристрій відтворення (та/або ПЗ) підтримує H.265 (HEVC)

Аудіо # 1:
мова: українська
переклад: професійний дубльований
кодек: AC-3 2.0
бітрейт: 192 кб/с

Аудіо # 2:
мова: англійська
переклад: оригінал
кодек: 5.1
бітрейт: 1510 кб/с

Аудіо # 3:
мова: англійська
переклад: оригінал | коментарі
кодек: AC-3 2.0
бітрейт: 160 кб/с

Аудіо # 4:
мова: англійська
переклад: оригінал | коментарі
кодек: AC-3 2.0
бітрейт: 160 кб/с

Субтитри # 1-2: (Forced, Full)
мова: українська
тип: програмні (м'які)
формат: *.srt

Субтитри # 3-4: (Full, SDH)
мова: англійська
тип: програмні (м'які)
формат: *.srt


Info
Код:
General
Unique ID                                : 214366837822859756300656670004506612856 (0xA1458D1BBFB8ACB8FC62A03CD5F55478)
Complete name                            : 1. The Incredibles (2004) 1080p H.265 [UKR_ENG] [Hurtom].
Format                                   :
Format version                           : Version 4
File size                                : 5.51 GiB
Duration                                 : 1 h 55 min
Overall bit rate                         : 6 828 kb/s
Movie name                               : Суперсімейка / The Incredibles (2004)
Encoded date                             : UTC 2020-03-15 19:58:00
Writing application                      : v20.0.0 ('I Am The Sun') 64-bit
Writing library                          : libebml v1.3.5 + v1.4.8
Cover                                    : Yes
Attachments                              : Cover.jpg

Video
ID                                       : 1
Format                                   : HEVC
Format/Info                              : High Efficiency Video Coding
Format profile                           : Main [email protected]@High
Codec ID                                 : V_MPEGH/ISO/HEVC
Duration                                 : 1 h 55 min
Bit rate                                 : 4 802 kb/s
Width                                    : 1 920 pixels
Height                                   : 804 pixels
Display aspect ratio                     : 2.40:1
Frame rate mode                          : Constant
Frame rate                               : 23.976 (23976/1000) FPS
Original frame rate                      : 23.976 (24000/1001) FPS
Color space                              : YUV
Chroma subsampling                       : 4:2:0
Bit depth                                : 10 bits
Bits/(Pixel*Frame)                       : 0.130
Stream size                              : 3.87 GiB (70%)
Title                                    : Суперсімейка / The Incredibles (2004)
Writing library                          : x265 3.2.1+1-b5c86a64bbbe:[Windows][MSVC 1923][64 bit] 10bit
Encoding settings                        : cpuid=1111039 / frame-threads=3 / numa-pools=12 / wpp / no-pmode / no-pme / no-psnr / no-ssim / log-level=2 / input-csp=1 / input-res=1920x804 / interlace=0 / total-frames=166053 / level-idc=41 / high-tier=1 / uhd-bd=0 / ref=5 / no-allow-non-conformance / no-repeat-headers / annexb / no-aud / no-hrd / info / hash=0 / no-temporal-layers / open-gop / min-keyint=23 / keyint=240 / gop-lookahead=0 / bframes=12 / b-adapt=2 / b-pyramid / bframe-bias=0 / rc-lookahead=60 / lookahead-slices=4 / scenecut=40 / radl=0 / no-splice / no-intra-refresh / ctu=32 / min-cu-size=8 / rect / amp / max-tu-size=32 / tu-inter-depth=4 / tu-intra-depth=4 / limit-tu=1 / rdoq-level=2 / dynamic-rd=0.00 / no-ssim-rd / signhide / no-tskip / nr-intra=0 / nr-inter=0 / no-constrained-intra / no-strong-intra-smoothing / max-merge=4 / limit-refs=2 / limit-modes / me=3 / subme=7 / merange=57 / temporal-mvp / no-hme / weightp / weightb / no-analyze-src-pics / deblock=-3:-3 / no-sao / no-sao-non-deblock / rd=6 / selective-sao=0 / no-early-skip / no-rskip / no-fast-intra / no-tskip-fast / no-cu-lossless / no-b-intra / no-splitrd-skip / rdpenalty=0 / psy-rd=2.00 / psy-rdoq=1.00 / no-rd-refine / no-lossless / cbqpoffs=0 / crqpoffs=0 / rc=crf / crf=19.0 / qcomp=0.60 / qpstep=4 / stats-write=0 / stats-read=0 / vbv-maxrate=50000 / vbv-bufsize=50000 / vbv-init=0.9 / crf-max=0.0 / crf-min=0.0 / ipratio=1.40 / pbratio=1.30 / aq-mode=1 / aq-strength=1.00 / no-cutree / zone-count=0 / no-strict-cbr / qg-size=32 / no-rc-grain / qpmax=69 / qpmin=0 / no-const-vbv / sar=1 / overscan=0 / videoformat=5 / range=0 / colorprim=1 / transfer=1 / colormatrix=1 / chromaloc=0 / display-window=0 / cll=0,0 / min-luma=0 / max-luma=1023 / log2-max-poc-lsb=8 / vui-timing-info / vui-hrd-info / slices=1 / no-opt-qp-pps / no-opt-ref-list-length-pps / no-multi-pass-opt-rps / scenecut-bias=0.05 / no-opt-cu-delta-qp / no-aq-motion / no-hdr / no-hdr-opt / no-dhdr10-opt / no-idr-recovery-sei / analysis-reuse-level=5 / scale-factor=0 / refine-intra=0 / refine-inter=0 / refine-mv=1 / refine-ctu-distortion=0 / no-limit-sao / ctu-info=0 / no-lowpass-dct / refine-analysis-type=0 / copy-pic=1 / max-ausize-factor=1.0 / no-dynamic-refine / no-single-sei / no-hevc-aq / no-svt / no-field / qp-adaptation-range=1.00
Default                                  : Yes
Forced                                   : No
Color range                              : Limited
Color primaries                          : BT.709
Transfer characteristics                 : BT.709
Matrix coefficients                      : BT.709

Audio #1
ID                                       : 2
Format                                   : AC-3
Format/Info                              : Audio Coding 3
Commercial name                          : Dolby Digital
Codec ID                                 : A_AC3
Duration                                 : 1 h 55 min
Bit rate mode                            : Constant
Bit rate                                 : 192 kb/s
Channel(s)                               : 2 channels
Channel layout                           : L R
Sampling rate                            : 48.0 kHz
Frame rate                               : 31.250 FPS (1536 SPF)
Compression mode                         : Lossy
Stream size                              : 159 MiB (3%)
Title                                    : / 2.0 Ch / 192 kbps / ПД / iTunes
Language                                 : Ukrainian
Service kind                             : Complete Main
Default                                  : Yes
Forced                                   : Yes

Audio #2
ID                                       : 3
Format                                   : ES
Format/Info                              : Digital Theater Systems
Commercial name                          : -ES Matrix
Codec ID                                 : A_DTS
Duration                                 : 1 h 55 min
Bit rate mode                            : Constant
Bit rate                                 : 1 509 kb/s
Channel(s)                               : 6 channels
Channel(s)_Original                      : 7 channels
ChannelLayout_Original                   : C L R Ls Rs Cs LFE
Sampling rate                            : 48.0 kHz
Frame rate                               : 93.750 FPS (512 SPF)
Bit depth                                : 24 bits
Compression mode                         : Lossy
Delay relative to video                  : 11 ms
Stream size                              : 1.22 GiB (22%)
Title                                    : -ES / 5.1 Ch / 1509 kbps / Original
Language                                 : English
Default                                  : No
Forced                                   : No

Audio #3
ID                                       : 4
Format                                   : AC-3
Format/Info                              : Audio Coding 3
Commercial name                          : Dolby Digital
Codec ID                                 : A_AC3
Duration                                 : 1 h 55 min
Bit rate mode                            : Constant
Bit rate                                 : 160 kb/s
Channel(s)                               : 2 channels
Channel layout                           : L R
Sampling rate                            : 48.0 kHz
Frame rate                               : 31.250 FPS (1536 SPF)
Compression mode                         : Lossy
Stream size                              : 132 MiB (2%)
Title                                    : / 2.0 Ch / 192 kbps / Original / Commentary / Бред Берд і Джон Уолкер
Language                                 : English
Service kind                             : Complete Main
Default                                  : No
Forced                                   : No

Audio #4
ID                                       : 5
Format                                   : AC-3
Format/Info                              : Audio Coding 3
Commercial name                          : Dolby Digital
Codec ID                                 : A_AC3
Duration                                 : 1 h 55 min
Bit rate mode                            : Constant
Bit rate                                 : 160 kb/s
Channel(s)                               : 2 channels
Channel layout                           : L R
Sampling rate                            : 48.0 kHz
Frame rate                               : 31.250 FPS (1536 SPF)
Compression mode                         : Lossy
Stream size                              : 132 MiB (2%)
Title                                    : / 2.0 Ch / 192 kbps / Original / Commentary / Мультиплікатори
Language                                 : English
Service kind                             : Complete Main
Default                                  : No
Forced                                   : No

Text #1
ID                                       : 6
Format                                   : UTF-8
Codec ID                                 : S_TEXT/UTF8
Codec ID/Info                            : UTF-8 Plain Text
Duration                                 : 1 h 44 min
Bit rate                                 : 2 b/s
Count of elements                        : 65
Stream size                              : 1.99 KiB (0%)
Title                                    : Forced
Language                                 : Ukrainian
Default                                  : Yes
Forced                                   : Yes

Text #2
ID                                       : 7
Format                                   : UTF-8
Codec ID                                 : S_TEXT/UTF8
Codec ID/Info                            : UTF-8 Plain Text
Duration                                 : 1 h 46 min
Bit rate                                 : 97 b/s
Count of elements                        : 1210
Stream size                              : 76.2 KiB (0%)
Title                                    : Full
Language                                 : Ukrainian
Default                                  : No
Forced                                   : No

Text #3
ID                                       : 8
Format                                   : UTF-8
Codec ID                                 : S_TEXT/UTF8
Codec ID/Info                            : UTF-8 Plain Text
Duration                                 : 1 h 47 min
Bit rate                                 : 63 b/s
Count of elements                        : 1334
Stream size                              : 49.7 KiB (0%)
Title                                    : Full
Language                                 : English
Default                                  : No
Forced                                   : No

Text #4
ID                                       : 9
Format                                   : UTF-8
Codec ID                                 : S_TEXT/UTF8
Codec ID/Info                            : UTF-8 Plain Text
Duration                                 : 1 h 47 min
Bit rate                                 : 64 b/s
Count of elements                        : 1337
Stream size                              : 50.5 KiB (0%)
Title                                    : SDH
Language                                 : English
Default                                  : No
Forced                                   : No

Menu
00:00:00.000                             : en:1. Golden Age
00:09:14.554                             : en:2. Weddings & Lawsuits
00:11:32.734                             : en:3. 15 Years & 50 Pounds Later
00:13:31.352                             : en:4. After School
00:17:08.527                             : en:5. Family Dinner
00:20:44.910                             : en:6. 2 Ex-Supers
00:26:53.529                             : en:7. A Super Defeated
00:30:42.215                             : en:8. Help Wanted
00:34:54.592                             : en:9. Nomanisan
00:41:27.235                             : en:10. New & Improved
00:46:01.675                             : en:11. Helen Suspects
00:48:54.515                             : en:12. Helen & E
00:50:02.124                             : en:13. An Important Meeting
00:54:01.780                             : en:14. E's Lab
00:57:09.551                             : en:15. Secrets Revealed
01:00:35.799                             : en:16. Suiting Up
01:05:04.859                             : en:17. Missile Lock
01:10:53.708                             : en:18. Out To Sea
01:12:57.915                             : en:19. Good Guys/Bad Guys
01:16:27.583                             : en:20. Elastigirl Returns
01:19:19.213                             : en:21. Caves & Rockets
01:21:13.911                             : en:22. Lost & Found
01:23:59.659                             : en:23. 100 Mile Dash
01:27:05.637                             : en:24. Reunited
01:30:29.841                             : en:25. Bob's Confession
01:32:47.395                             : en:26. Frozone & Honey
01:33:33.024                             : en:27. Omnidroid Attacks
01:34:30.540                             : en:28. Road Trip
01:37:03.151                             : en:29. The Incredibles vs. The Omnidroid
01:41:58.070                             : en:30. Past vs. Future
01:45:40.000                             : en:31. Happy Endings
01:47:33.322                             : en:32. End Credits
Світлини



2. Суперсімейка 2 / Incredibles 2 (2018) 1080p H.265 Ukr/Eng | Sub Eng
Суперсімейка 2 / Incredibles 2 (2018) 1080p H.265 Ukr/Eng | Sub Eng

Суперсімейка. Дилогія / The Incredibles. Dilogy (2004-2018) 1080p H.265 Ukr/Eng | Sub Ukr/Eng


Жанр: анімаційний, бойовик, комедія, пригодницький, сімейний, фантастика
Країна: США
Кінокомпанія: Pixar Animation Studios, Walt Disney Pictures
Режисер: Бред Бірд / Brad Bird
Актори: Крейг Т. Нельсон, Холлі Хантер, Сара Вавелл, Хак Мілнер, Кетрін Кінер, Боб Оденкірк, Семюел Л. Джексон

Сюжет:
Після подій першої частини суперсімейка користується підвищеною увагою з боку журналістів. Несподівано виявилося, що чарівна Місіс Виняткова набагато краще виглядає на екрані телевізора, ніж її чоловік. Містеру виключно все частіше доводиться сидіти вдома і доглядати за дітьми, у кожного з яких є свої причини бути незадоволеним власними суперздатностями. Однак сімейним проблемам належить відступити на другий план, коли виявиться, що спокою Суперсімейки загрожує новий могутній ворог.

Тривалість: 01:57:50
Якість:

Відео:
кодек: H.265 (HEVC)
розмір кадру: 1920 x 804
бітрейт: 6 272 кб/с
бітова глибина: 10 біт

Увага! Перед завантаженням переконайтесь, що ваш пристрій відтворення (та/або ПЗ) підтримує H.265 (HEVC)

Аудіо # 1:
мова: українська
переклад: професійний дубльований | Студія LeDoyen
кодек: 5.1
бітрейт: 1510 кб/с

Аудіо # 2:
мова: англійська
переклад: оригінал
кодек: 5.1
бітрейт: 1510 кб/с

Субтитри # 1: (Forced)
мова: українська
тип: програмні (м'які)
формат: *.srt

Субтитри # 2-4: (Full, SDH, SDH-Colored)
мова: англійська
тип: програмні (м'які)
формат: *.srt


Info
Код:
General
Unique ID                                : 139823907673860183638954759784264202236 (0x69311AE610F5A756143E0F51EE7D77FC)
Complete name                            : 2. Incredibles 2 (2018) 1080p H.265 [UKR_ENG] [Hurtom].
Format                                   :
Format version                           : Version 4
File size                                : 7.65 GiB
Duration                                 : 1 h 57 min
Overall bit rate                         : 9 294 kb/s
Movie name                               : Суперсімейка 2 / Incredibles 2 (2018)
Encoded date                             : UTC 2020-03-15 20:09:35
Writing application                      : v20.0.0 ('I Am The Sun') 64-bit
Writing library                          : libebml v1.3.5 + v1.4.8
Cover                                    : Yes
Attachments                              : cover.jpg

Video
ID                                       : 1
Format                                   : HEVC
Format/Info                              : High Efficiency Video Coding
Format profile                           : Main [email protected]@High
Codec ID                                 : V_MPEGH/ISO/HEVC
Duration                                 : 1 h 57 min
Bit rate                                 : 6 272 kb/s
Width                                    : 1 920 pixels
Height                                   : 804 pixels
Display aspect ratio                     : 2.40:1
Frame rate mode                          : Constant
Frame rate                               : 23.976 (24000/1001) FPS
Color space                              : YUV
Chroma subsampling                       : 4:2:0
Bit depth                                : 10 bits
Bits/(Pixel*Frame)                       : 0.169
Stream size                              : 5.16 GiB (67%)
Title                                    : Суперсімейка 2 / Incredibles 2 (2018)
Writing library                          : x265 3.2.1+1-b5c86a64bbbe:[Windows][MSVC 1923][64 bit] 10bit
Encoding settings                        : cpuid=1111039 / frame-threads=3 / numa-pools=12 / wpp / no-pmode / no-pme / no-psnr / no-ssim / log-level=2 / input-csp=1 / input-res=1920x804 / interlace=0 / total-frames=158827 / level-idc=41 / high-tier=1 / uhd-bd=0 / ref=5 / no-allow-non-conformance / no-repeat-headers / annexb / no-aud / no-hrd / info / hash=0 / no-temporal-layers / open-gop / min-keyint=23 / keyint=240 / gop-lookahead=0 / bframes=10 / b-adapt=2 / b-pyramid / bframe-bias=0 / rc-lookahead=60 / lookahead-slices=4 / scenecut=40 / radl=0 / no-splice / no-intra-refresh / ctu=32 / min-cu-size=8 / rect / amp / max-tu-size=32 / tu-inter-depth=4 / tu-intra-depth=4 / limit-tu=1 / rdoq-level=2 / dynamic-rd=0.00 / no-ssim-rd / signhide / no-tskip / nr-intra=0 / nr-inter=0 / no-constrained-intra / no-strong-intra-smoothing / max-merge=4 / limit-refs=2 / limit-modes / me=3 / subme=7 / merange=57 / temporal-mvp / no-hme / weightp / weightb / no-analyze-src-pics / deblock=-3:-3 / no-sao / no-sao-non-deblock / rd=6 / selective-sao=0 / no-early-skip / no-rskip / no-fast-intra / no-tskip-fast / no-cu-lossless / no-b-intra / no-splitrd-skip / rdpenalty=0 / psy-rd=2.00 / psy-rdoq=1.00 / no-rd-refine / no-lossless / cbqpoffs=0 / crqpoffs=0 / rc=crf / crf=20.0 / qcomp=0.65 / qpstep=4 / stats-write=0 / stats-read=0 / vbv-maxrate=50000 / vbv-bufsize=50000 / vbv-init=0.9 / crf-max=0.0 / crf-min=0.0 / ipratio=1.40 / pbratio=1.30 / aq-mode=1 / aq-strength=1.00 / no-cutree / zone-count=0 / no-strict-cbr / qg-size=32 / no-rc-grain / qpmax=69 / qpmin=0 / no-const-vbv / sar=1 / overscan=0 / videoformat=5 / range=0 / colorprim=1 / transfer=1 / colormatrix=1 / chromaloc=0 / display-window=0 / cll=0,0 / min-luma=0 / max-luma=1023 / log2-max-poc-lsb=8 / vui-timing-info / vui-hrd-info / slices=1 / no-opt-qp-pps / no-opt-ref-list-length-pps / no-multi-pass-opt-rps / scenecut-bias=0.05 / no-opt-cu-delta-qp / no-aq-motion / no-hdr / no-hdr-opt / no-dhdr10-opt / no-idr-recovery-sei / analysis-reuse-level=5 / scale-factor=0 / refine-intra=0 / refine-inter=0 / refine-mv=1 / refine-ctu-distortion=0 / no-limit-sao / ctu-info=0 / no-lowpass-dct / refine-analysis-type=0 / copy-pic=1 / max-ausize-factor=1.0 / no-dynamic-refine / no-single-sei / no-hevc-aq / no-svt / no-field / qp-adaptation-range=1.00
Default                                  : Yes
Forced                                   : No
Color range                              : Limited
Color primaries                          : BT.709
Transfer characteristics                 : BT.709
Matrix coefficients                      : BT.709

Audio #1
ID                                       : 2
Format                                   :
Format/Info                              : Digital Theater Systems
Codec ID                                 : A_DTS
Duration                                 : 1 h 57 min
Bit rate mode                            : Constant
Bit rate                                 : 1 509 kb/s
Channel(s)                               : 6 channels
Channel layout                           : C L R Ls Rs LFE
Sampling rate                            : 48.0 kHz
Frame rate                               : 93.750 FPS (512 SPF)
Bit depth                                : 24 bits
Compression mode                         : Lossy
Stream size                              : 1.24 GiB (16%)
Title                                    : / 5.1 Ch / 1509 kbps / ПД / Студія LeDoyen
Language                                 : Ukrainian
Default                                  : Yes
Forced                                   : Yes

Audio #2
ID                                       : 3
Format                                   :
Format/Info                              : Digital Theater Systems
Codec ID                                 : A_DTS
Duration                                 : 1 h 57 min
Bit rate mode                            : Constant
Bit rate                                 : 1 509 kb/s
Channel(s)                               : 6 channels
Channel layout                           : C L R Ls Rs LFE
Sampling rate                            : 48.0 kHz
Frame rate                               : 93.750 FPS (512 SPF)
Bit depth                                : 24 bits
Compression mode                         : Lossy
Stream size                              : 1.24 GiB (16%)
Title                                    : / 5.1 Ch / 1509 kbps / Original
Language                                 : English
Default                                  : No
Forced                                   : No

Text #1
ID                                       : 4
Format                                   : UTF-8
Codec ID                                 : S_TEXT/UTF8
Codec ID/Info                            : UTF-8 Plain Text
Duration                                 : 1 h 53 min
Bit rate                                 : 0 b/s
Count of elements                        : 9
Stream size                              : 412 Bytes (0%)
Title                                    : Forced
Language                                 : Ukrainian
Default                                  : Yes
Forced                                   : Yes

Text #2
ID                                       : 5
Format                                   : UTF-8
Codec ID                                 : S_TEXT/UTF8
Codec ID/Info                            : UTF-8 Plain Text
Duration                                 : 1 h 56 min
Bit rate                                 : 84 b/s
Count of elements                        : 1991
Stream size                              : 72.2 KiB (0%)
Title                                    : Full
Language                                 : English
Default                                  : No
Forced                                   : No

Text #3
ID                                       : 6
Format                                   : UTF-8
Codec ID                                 : S_TEXT/UTF8
Codec ID/Info                            : UTF-8 Plain Text
Duration                                 : 1 h 56 min
Bit rate                                 : 98 b/s
Count of elements                        : 2313
Stream size                              : 84.0 KiB (0%)
Title                                    : SDH
Language                                 : English
Default                                  : No
Forced                                   : No

Text #4
ID                                       : 7
Format                                   : UTF-8
Codec ID                                 : S_TEXT/UTF8
Codec ID/Info                            : UTF-8 Plain Text
Duration                                 : 1 h 54 min
Bit rate                                 : 124 b/s
Count of elements                        : 2325
Stream size                              : 105 KiB (0%)
Title                                    : SDH-Colored
Language                                 : English
Default                                  : No
Forced                                   : No

Menu
00:00:00.000                             : : 1. Tony Interrogation
00:03:22.326                             : : 2. Incredibles vs Underminer
00:08:53.615                             : : 3. Chewed Out
00:09:36.783                             : : 4. Family Dinner
00:13:38.274                             : : 5. Poolside
00:15:44.735                             : : 6. Deavor Meets Supers
00:21:19.736                             : : 7. Pillow Talk
00:23:28.280                             : : 8. New House
00:27:08.792                             : : 9. Where's Mom?
00:28:59.569                             : : 10. Runaway Train
00:35:10.900                             : : 11. Raccoon Fight
00:39:07.844                             : : 12. Helen Checks in
00:42:43.893                             : : 13. Tony Forgets
00:43:42.411                             : : 14. Air Rescue
00:47:35.351                             : : 15. Breakfast Blowup
00:48:53.887                             : : 16. Triumph Return
00:54:15.585                             : : 17. Vi Embarrassed
00:56:16.038                             : : 18. Tracking Screenslaver
01:00:58.695                             : : 19. Screenslaver Caught
01:02:01.884                             : : 20. Breaking Point
01:06:55.510                             : : 21. E the Babysitter
01:09:18.235                             : : 22. Helen Reviews Footage
01:11:28.199                             : : 23. Bob's Apology
01:12:37.685                             : : 24. Helen Slips Away
01:14:39.265                             : : 25. Auntie E
01:18:00.966                             : : 26. Cold Room
01:20:32.534                             : : 27. House Attack
01:25:01.929                             : : 28. Kids Alone
01:27:59.439                             : : 29. Super Signing
01:31:53.923                             : : 30. Kids to the Rescue
01:33:26.432                             : : 31. Trap is Sprung
01:36:25.237                             : : 32. Battle Royale
01:37:45.192                             : : 33. Save the Day
01:43:56.895                             : : 34. Resolution
01:45:35.912                             : : 35. Epilogue
01:47:30.902                             : : 36. End Credits
Світлини




Джерело: &
Особиста оцінка: 10 - без зайвих вагань рекомендую всім!


Срібний реліз (на рейтинг впливає 50% завантаженого)
 Трекер:    Зареєстрований   

Завантажити / скачати мультфільм українською



відео для новачків



 Зареєстрований:   2020-03-16 00:11
 Розмір:   13.16 GB 
 Оцінка мультфільму:   9.9/10 (Голосів: 18)
   
Ваш часовий пояс: GMT + 2 Години

Нова тема   Відповісти