Легкі гроші / Good People (2014) AVC Ukr/Eng

Нові коментарі

Нова тема   Відповісти
Автор Повідомлення
Arsenfpu 
Відео Гуртом - фільмокрай
Відео Гуртом - фільмокрай


З нами з: 30.04.09
Востаннє: 10.07.20
Повідомлень: 7049

2020-03-15 21:06  
Легкі гроші / Good People (2014) AVC Ukr/Eng

Легкі гроші / Good People (2014) AVC Ukr/Eng


Жанр: бойовик, трилер, кримінальний
Країна: США



Кінокомпанія: Film 360, Film i Väst , Filmgate Films, Maguire Entertainment, Material Pictures, Millennium Films
Режисер: Генрик Рубен Гьонц
Актори: Джеймс Франко, Кейт Хадсон, Омар Сі, Том Уілкінсон, Сем Спруелл, Анна Фріл, Дайармейд Мерта, Діана Хардкесл, Ласко Аткінс, Олівер Димсдейл, Майкл Джібсон, Маартен Данненберг, Аник Вігет, Найджел Геніс, Майкл Фокс, ваджу Алі, Аманда Едвардс , Джордж Кірбі, Нік Тернер

Сюжет:
Том і Анна звичайна сімейна пара. Робота, дім, борги по кредитах. Але ситуація змінюється. Власник їх квартири, що жив поверхом нижче, раптово помирає, і подружжя знаходять у нього сумку з грошима. 370 000 доларів, про які, схоже, ніхто не знає. Життя пари може змінитися в одну мить, але є одна проблема. Ці гроші належать бандитам, які хочуть їх знайти.


Тривалість: 01:30:13
Якість:
Відео:
кодек:
розмір кадру: 1 024 х 432
бітрейт: 2 499 кб/с

Аудіо # 1:
мова: українська
переклад: багатоголосий закадровий
кодек: 2.0
бітрейт: 192 кб/с

Аудіо # 2:
мова: англійська
переклад: оригінал
кодек: 2.0
бітрейт: 192 кб/с
Скріншоти














Про файл
General
Unique ID : 271985047483071697932089213109702688727 (0xCC9E6A2C39A790AD52A95ADF69D2FFD7)
Complete name : C:\Good People (2014) [Ukr,Eng] AVC [Hurtom].
Format :
Format version : Version 4 / Version 2
File size : 1.82 GiB
Duration : 1 h 30 min
Overall bit rate : 2 883 kb/s
Movie name : Легкі гроші / Good People (2014)
Encoded date : UTC 2020-03-15 17:29:19
Writing application : v21.0.0 ('Tardigrades Will Inherit The Earth') 32-bit
Writing library : libebml v1.3.5 + v1.4.8
Cover : Yes
Attachments : cover.jpg

Video
ID : 1
Format : AVC
Format/Info : Advanced Video Codec
Format profile : [email protected]
Format settings, CABAC : Yes
Format settings, ReFrames : 4 frames
Codec ID : V_MPEG4/ISO/AVC
Duration : 1 h 30 min
Bit rate : 2 499 kb/s
Width : 1 024 pixels
Height : 432 pixels
Display aspect ratio : 2.40:1
Frame rate mode : Constant
Frame rate : 23.976 (24000/1001) FPS
Color space : YUV
Chroma subsampling : 4:2:0
Bit depth : 8 bits
Scan type : Progressive
Bits/(Pixel*Frame) : 0.236
Stream size : 1.58 GiB (87%)
Writing library : core 157 r2935 545de2f
Encoding settings : cabac=1 / ref=3 / deblock=1:-1:-1 / analyse=0x3:0x113 / me=hex / subme=7 / psy=1 / psy_rd=1.00:0.15 / mixed_ref=1 / me_range=16 / chroma_me=1 / trellis=1 / 8x8dct=1 / cqm=0 / deadzone=21,11 / fast_pskip=1 / chroma_qp_offset=-3 / threads=12 / lookahead_threads=2 / sliced_threads=0 / nr=0 / decimate=1 / interlaced=0 / bluray_compat=0 / constrained_intra=0 / bframes=3 / b_pyramid=2 / b_adapt=1 / b_bias=0 / direct=1 / weightb=1 / open_gop=0 / weightp=2 / keyint=240 / keyint_min=23 / scenecut=40 / intra_refresh=0 / rc_lookahead=40 / rc=2pass / mbtree=1 / bitrate=2499 / ratetol=1.0 / qcomp=0.60 / qpmin=0 / qpmax=69 / qpstep=4 / cplxblur=20.0 / qblur=0.5 / ip_ratio=1.40 / aq=1:1.00
Default : Yes
Forced : No

Audio #1
ID : 2
Format : AC-3
Format/Info : Audio Coding 3
Mode extension : CM (complete main)
Format settings, Endianness : Big
Codec ID : A_AC3
Duration : 1 h 30 min
Bit rate mode : Constant
Bit rate : 192 kb/s
Channel(s) : 2 channels
Channel positions : Front: L R
Sampling rate : 48.0 kHz
Frame rate : 31.250 FPS (1536 spf)
Compression mode : Lossy
Stream size : 124 MiB (7%)
Title : К1
Language : Ukrainian
Default : Yes
Forced : Yes

Audio #2
ID : 3
Format : AC-3
Format/Info : Audio Coding 3
Mode extension : CM (complete main)
Format settings, Endianness : Big
Codec ID : A_AC3
Duration : 1 h 30 min
Bit rate mode : Constant
Bit rate : 192 kb/s
Channel(s) : 2 channels
Channel positions : Front: L R
Sampling rate : 48.0 kHz
Frame rate : 31.250 FPS (1536 spf)
Compression mode : Lossy
Stream size : 124 MiB (7%)
Language : English
Default : No
Forced : No

Text
ID : 4
Format : UTF-8
Codec ID : S_TEXT/UTF8
Codec ID/Info : UTF-8 Plain Text
Duration : 1 h 21 min
Bit rate : 38 b/s
Count of elements : 759
Stream size : 23.2 KiB (0%)
Language : English
Default : Yes
Forced : No
Джерело:
За українську доріжку дякую п. Bohdan237, drop_plz
Особиста оцінка: не дивився


 Трекер:    Зареєстрований   

Завантажити / скачати фільм українською



відео для новачків



 Зареєстрований:   2020-03-15 21:06
 Розмір:   1.82 GB 
 Оцінка фільму:   7.6/10 (Голосів: 5)
   
Інші релізи
   Легкі гроші / Good People (2014) Remux Ukr/Eng | Sub Eng kryk-v.ya.  3 / 0   23.21 GB   2019-07-04 13:48 
   Легкі гроші / Good People (2014) drop_plz  9 / 0   1.32 GB   2019-05-16 10:09 
hetzendorf 
Попереджень: 2
Попереджень: 2 


З нами з: 23.07.15
Востаннє: 10.07.20
Повідомлень: 2824

2020-03-16 01:07  
За описом схоже на ремейк чудового іспанського фільму «Комунар» / «La comunidad» (2000)
Ваш часовий пояс: GMT + 2 Години

Нова тема   Відповісти